呆呆狐狸
超级版主

[2016] [日本] [打包] [完结] [BT下载][灵能百分百/Mob Psycho 100 第一季][全12集打包][日语无字][BD-MKV][720P/1080P][片源]

-->



◎译  名 灵能百分百 / 路人超能100(台)

◎片  名 モブサイコ100

◎年  代 2016

◎产  地 日本

◎类  别 科幻 / 动画

◎语  言 日语

◎上映日期 2016-07-11(日本)

◎IMDb评分 8.1/10 from 5177 users

◎IMDb链接 http://www.imdb.com/title/tt5897304

◎豆瓣评分 9.3/10 from 24076 users

◎豆瓣链接 https://movie.douban.com/subject/26677934/

◎BT之家整理 http://www.51btbtt.com/

◎集  数 12

◎片  长 24分钟

◎导  演 立川让 Yuzuru Tachikawa

◎编  剧 ONE / 濑古浩司

◎主  演 伊藤节生

      樱井孝宏 Takahiro Sakurai

      大塚明夫 Akio Ôtsuka

      入野自由 Miyu Irino

      细谷佳正 Hosoya Yoshimasa

      种崎敦美 Atsumi Tanezaki

      松冈祯丞 Yoshitsugu Matsuoka

      藤村步 Ayumi Fujimura

      佐武宇绮 Uki Satake

      三木真一郎 Shinichirô Miki




◎简  介  


  眼睛只看到金钱的江湖骗子灵幻新隆衣冠楚楚,道貌岸然,巧舌如簧,他以灵能力者的身份替委托者解决各种诡异事件,其实半点灵力没有。每当遇见真正的恶灵而又无法解决时,灵幻便会叫来他的弟子——真正拥有超强令能力的中学生影山茂夫(绰号“龙套”)。龙套君无论在学校还是家中都毫无存在感,呆呆傻傻的他隐藏着常人甚至灵能力者都难以想象的可怕力量。每当他的灵能力值达到100%时,他的对手必将遭遇有生以来最可怕的回忆。在与灵幻老师修行的过程中,龙套君遇到了各式各样的敌人,灵魂深处的自我也渐渐苏醒……

本片根据漫画家ONE的同名原作改编。


◎获奖情况  


  第3届豆瓣电影年度榜单(2016)

  评分最高的动画剧集(提名)



Video
ID : 1
Format : AVC
Format/Info : Advanced Video Codec
Format profile : [email protected]
Format settings : CABAC / 4 Ref Frames
Format settings, CABAC : Yes
Format settings, ReFrames : 4 frames
Codec ID : V_MPEG4/ISO/AVC
Duration : 24 min 11 s
Bit rate : 5 075 kb/s
Width : 1 920 pixels
Height : 1 080 pixels
Display aspect ratio : 16:9
Frame rate mode : Constant
Frame rate : 23.976 (24000/1001) FPS
Color space : YUV
Chroma subsampling : 4:2:0
Bit depth : 8 bits
Scan type : Progressive
Bits/(Pixel*Frame) : 0.102
Stream size : 880 MiB (59%)
Writing library : x264 core 155 r2901 7d0ff22
Encoding settings : cabac=1 / ref=4 / deblock=1:1:1 / analyse=0x3:0x133 / me=umh / subme=7 / psy=1 / psy_rd=0.40:0.00 / mixed_ref=1 / me_range=16 / chroma_me=1 / trellis=2 / 8x8dct=1 / cqm=0 / deadzone=21,11 / fast_pskip=0 / chroma_qp_offset=-2 / threads=12 / lookahead_threads=2 / sliced_threads=0 / nr=0 / decimate=1 / interlaced=0 / bluray_compat=0 / constrained_intra=0 / bframes=5 / b_pyramid=2 / b_adapt=1 / b_bias=0 / direct=3 / weightb=1 / open_gop=0 / weightp=2 / keyint=250 / keyint_min=23 / scenecut=40 / intra_refresh=0 / rc_lookahead=50 / rc=2pass / mbtree=1 / bitrate=5075 / ratetol=1.0 / qcomp=0.60 / qpmin=0 / qpmax=69 / qpstep=4 / cplxblur=20.0 / qblur=0.5 / ip_ratio=1.40 / aq=1:0.60
Language : English
Default : Yes
Forced : No

Audio #1
ID : 2
Format : FLAC
Format/Info : Free Lossless Audio Codec
Codec ID : A_FLAC
Duration : 24 min 12 s
Bit rate mode : Variable
Bit rate : 783 kb/s
Channel(s) : 2 channels
Channel layout : L R
Sampling rate : 48.0 kHz
Frame rate : 11.719 FPS (4096 SPF)
Bit depth : 16 bits
Compression mode : Lossless
Stream size : 136 MiB (9%)
Writing library : libFLAC 1.2.1 (UTC 2007-09-17)
Language : Japanese
Default : Yes
Forced : No

Audio #2
ID : 3
Format : FLAC
Format/Info : Free Lossless Audio Codec
Codec ID : A_FLAC
Duration : 24 min 12 s
Bit rate mode : Variable
Bit rate : 2 738 kb/s
Channel(s) : 6 channels
Channel layout : L R C LFE Ls Rs
Sampling rate : 48.0 kHz
Frame rate : 11.719 FPS (4096 SPF)
Bit depth : 24 bits
Detected bit depth : 20 bits
Compression mode : Lossless
Stream size : 474 MiB (32%)
Writing library : libFLAC 1.2.1 (UTC 2007-09-17)
Language : English
Default : No
Forced : No

Text #1
ID : 4
Format : UTF-8
Codec ID : S_TEXT/UTF8
Codec ID/Info : UTF-8 Plain Text
Duration : 24 min 9 s
Bit rate : 83 b/s
Count of elements : 390
Stream size : 14.7 KiB (0%)
Title : English full
Language : English
Default : Yes
Forced : Yes

Text #2
ID : 5
Format : UTF-8
Codec ID : S_TEXT/UTF8
Codec ID/Info : UTF-8 Plain Text
Duration : 24 min 9 s
Bit rate : 12 b/s
Count of elements : 54
Stream size : 2.21 KiB (0%)
Title : English forced
Language : English
Default : No
Forced : No

Menu
00:00:00.000 : en:00:00:00.000
00:00:43.043 : en:00:00:43.043
00:02:13.008 : en:00:02:13.008
00:10:24.040 : en:00:10:24.040
00:22:26.053 : en:00:22:26.053
00:23:56.018 : en:00:23:56.018



2 个附件 售价 大小 下载 时间

Mob.Psycho.100.S01.JAPANESE.720p.BluRay.x264-HAiKU[btbtt.me].torrent 0 金币 66.79K 1141 次 2月前

Mob.Psycho.100.S01.JAPANESE.1080p.BluRay.x264-HAiKU[btbtt.me].torrent 0 金币 88.68K 1680 次 2月前

#1楼
发帖时间:2019-02-12 21:50:20   |   回复数:2
911degrees
隐世仙人♂
非常感谢,谢谢分享
2月前 #2楼
Annice
小有名气
这个很爽的,虽然剧情方面有那么一点点扮野,但的确打斗是很爽的
11小时前 #3楼
游客组