呆呆狐狸
超级版主

[2017] [日本] [打包] [新番] [BT下载][进击的巨人/Attack.On.Titan 第二季][全12集打包][日语无中字][MKV][720P/1080P][片源]

-->

◎译  名 进击的巨人第二季/AttackonTitanSeason2

◎片  名 進撃の巨人 Season 2

◎年  代 2017

◎产  地 日本

◎类  别 科幻/动画/灾难

◎语  言 日语

◎上映日期 2017-04-01(日本)

◎豆瓣评分 9.1/10 from 24,237 users

◎豆瓣链接 https://movie.douban.com/subject/26268494/

◎BT之家整理 http://www.btbtt.us/

◎片  长 24分钟

◎导  演 荒木哲郎 Tetsuro Araki / 肥塚正史

◎主  演 梶裕贵 Yûki Kaji

      石川由依 Ishikawa Yui

      井上麻里奈 Marina Inoue

      小野大辅 Daisuke Ono

      神谷浩史 Hiroshi Kamiya

      朴璐美 Romi Pak

      细谷佳正 Hosoya Yoshimasa

      桥诘知久

      谷山纪章 Kishô Taniyama

      下野纮 Hiro Shimono

      小林优 Yu Kobayashi

      三上枝织 Shiori Mikami

      藤田咲 Saki Fujita

      杉田智和 Tomokazu Sugita

      渡边明乃 Akeno Watanabe

      土田大 Hiroshi Tsuchida

      子安武人 Takehito Koyasu


◎简  介


  《进击的巨人第二季》是根据日本漫画家谏山创的漫画作品《进击的巨人》所改编的同名动画作品的第二季,讲述高墙内的人类们为了自己的生存对抗巨人的故事。动画由WIT STUDIO负责制作。

  该作品延续第一部的残酷,继续这一场悲壮的史诗。

  人类曾一度惨遭巨人捕食而崩溃,濒临灭绝。幸存下来的人们建造了三面巨大的防护墙来阻止了巨人的入侵,在这隔绝的环境里享受了一百年的和平。不过作为“和平”的代价,人类失去了到墙壁的外面的“自由”,如同圈养的畜牲一般,安稳地生活着。主人公艾伦·耶格尔对还没见过的墙外世界抱有兴趣,同时也对人类失去的 “自由”抱有向往,不同于惧怕巨人且盲目相信墙壁能保护自身安全,而甘愿生存在墙内的大多数人类,他极想到墙外的世界去探险,也因为这种想法,人皆视其为异端。

  就在这悠长的安逸持续了一百年,也就是艾伦·耶格尔十岁那年之际,突然,一个前所未见、身高60米的“超大型巨人”出现在人类面前,他以压倒性的力量破坏了巨墙,其后瞬间消失,巨人们成群地冲进墙内,人类惨成饵食。by:http://www.66yc.cc

  看到了人们、伙伴、母亲先后死在巨人口中,他怀着对巨人无以形容的恨意,誓言全歼巨人。母亲死亡、父亲失踪。其父可能掌握了巨人之谜,艾伦·耶格尔因父亲而获得了的“巨人之力”,在军队同期训练生里有着其他人无法比拟的强悍精神力,虽然见过地狱,依然敢于向巨人发起挑战,进而加入向往以久的调查军团,艾伦的生活,就在这一刻,开始发生了翻天覆地的变化……


Video
ID : 1
Format : AVC
Format/Info : Advanced Video Codec
Format profile : High@L4.1
Format settings : CABAC / 4 Ref Frames
Format settings, CABAC : Yes
Format settings, ReFrames : 4 frames
Codec ID : V_MPEG4/ISO/AVC
Duration : 24 min 12 s
Bit rate : 7 268 kb/s
Width : 1 920 pixels
Height : 1 080 pixels
Display aspect ratio : 16:9
Frame rate mode : Constant
Frame rate : 23.976 (24000/1001) FPS
Color space : YUV
Chroma subsampling : 4:2:0
Bit depth : 8 bits
Scan type : Progressive
Bits/(Pixel*Frame) : 0.146
Stream size : 1.23 GiB (85%)
Writing library : x264 core 155 r2901 7d0ff22
Encoding settings : cabac=1 / ref=4 / deblock=1:1:1 / analyse=0x3:0x113 / me=umh / subme=7 / psy=1 / psy_rd=0.40:0.00 / mixed_ref=1 / me_range=16 / chroma_me=1 / trellis=2 / 8x8dct=1 / cqm=0 / deadzone=21,11 / fast_pskip=1 / chroma_qp_offset=-2 / threads=18 / lookahead_threads=3 / sliced_threads=0 / nr=0 / decimate=1 / interlaced=0 / bluray_compat=0 / constrained_intra=0 / bframes=3 / b_pyramid=2 / b_adapt=1 / b_bias=0 / direct=3 / weightb=1 / open_gop=0 / weightp=2 / keyint=240 / keyint_min=23 / scenecut=40 / intra_refresh=0 / rc_lookahead=50 / rc=2pass / mbtree=1 / bitrate=7268 / ratetol=1.0 / qcomp=0.60 / qpmin=0 / qpmax=69 / qpstep=4 / cplxblur=20.0 / qblur=0.5 / ip_ratio=1.40 / aq=1:0.60
Default : Yes
Forced : No

Audio #1
ID : 2
Format : AC-3
Format/Info : Audio Coding 3
Codec ID : A_AC3
Duration : 24 min 12 s
Bit rate mode : Constant
Bit rate : 640 kb/s
Channel(s) : 2 channels
Channel positions : Front: L R
Sampling rate : 48.0 kHz
Frame rate : 31.250 FPS (1536 SPF)
Bit depth : 16 bits
Compression mode : Lossy
Stream size : 111 MiB (7%)
Language : Japanese
Service kind : Complete Main
Default : Yes
Forced : No

Audio #2
ID : 3
Format : AC-3
Format/Info : Audio Coding 3
Codec ID : A_AC3
Duration : 24 min 12 s
Bit rate mode : Constant
Bit rate : 640 kb/s
Channel(s) : 6 channels
Channel positions : Front: L C R, Side: L R, LFE
Sampling rate : 48.0 kHz
Frame rate : 31.250 FPS (1536 SPF)
Bit depth : 16 bits
Compression mode : Lossy
Stream size : 111 MiB (7%)
Language : English
Service kind : Complete Main
Default : No
Forced : No

Text
ID : 4
Format : UTF-8
Codec ID : S_TEXT/UTF8
Codec ID/Info : UTF-8 Plain Text
Duration : 22 min 9 s
Bit rate : 55 b/s
Count of elements : 300
Stream size : 8.96 KiB (0%)
Language : English
Default : Yes
Forced : No

Menu
00:00:00.000 : en:00:00:00.000
00:01:31.008 : en:00:01:31.008
00:11:59.969 : en:00:11:59.969
00:22:10.996 : en:00:22:10.996
00:23:41.003 : en:00:23:41.003




2 个附件 售价 大小 下载 时间

Attack.On.Titan.S02.720p.BluRay.x264-ANiHLS[btbtt.me].torrent 0 金币 55.09K 2548 次 4月前

Attack.On.Titan.S02.1080p.BluRay.x264-ANiHLS[btbtt.me].torrent 0 金币 89.83K 4268 次 4月前

#1楼
发帖时间:2018-09-07 22:29:50   |   回复数:3
wstt
小有名气
谢谢楼主分享精彩资源。
4月前 #2楼
cq191495490
武林盟主
这个支持一下            
4月前 #3楼
blue-fox
一派掌门
剧情都快忘完了,补一下。
7天前 #4楼
游客组