657441429
江湖小虾

[更早] [港台] [原声] [APE/FLAC/WAV等无损] 胡伟立.-.[1993.太极张三丰.-.The.Tai-Chi.Master].专辑.(APE)

-->

REM DISCID 9F0D8D1C

REM COMMENT ExactAudioCopy v0.95b1

PERFORMER "群星"

TITLE "太极张三丰"

FILE "CDImage.ape" WAVE

  TRACK 01 AUDIO

    TITLE "随缘(主题曲国语版)"

    PERFORMER "胡伟立"

    INDEX 01 00:00:00

  TRACK 02 AUDIO

    TITLE "兄弟情"

    PERFORMER "胡伟立"

    INDEX 01 03:09:00

  TRACK 03 AUDIO

    TITLE "惩罚"

    PERFORMER "胡伟立"

    INDEX 01 05:22:00

  TRACK 04 AUDIO

    TITLE "成长"

    PERFORMER "胡伟立"

    INDEX 01 07:46:00

  TRACK 05 AUDIO

    TITLE "洗衣练功"

    PERFORMER "胡伟立"

    INDEX 01 09:13:00

  TRACK 06 AUDIO

    TITLE "偷功"

    PERFORMER "胡伟立"

    INDEX 01 10:01:00

  TRACK 07 AUDIO

    TITLE "陷害"

    PERFORMER "胡伟立"

    INDEX 01 11:38:00

  TRACK 08 AUDIO

    TITLE "罗汉阵"

    PERFORMER "胡伟立"

    INDEX 01 12:54:00

  TRACK 09 AUDIO

    TITLE "油之战"

    PERFORMER "胡伟立"

    INDEX 01 14:49:00

  TRACK 10 AUDIO

    TITLE "逐出师门"

    PERFORMER "胡伟立"

    INDEX 01 17:16:00

  TRACK 11 AUDIO

    TITLE "舍(插曲国语版)"

    PERFORMER "胡伟立"

    INDEX 01 19:13:00

  TRACK 12 AUDIO

    TITLE "入江湖"

    PERFORMER "胡伟立"

    INDEX 01 23:18:00

  TRACK 13 AUDIO

    TITLE "悟"

    PERFORMER "胡伟立"

    INDEX 01 24:26:00

  TRACK 14 AUDIO

    TITLE "佛笑楼"

    PERFORMER "胡伟立"

    INDEX 01 26:44:00

  TRACK 15 AUDIO

    TITLE "舍(演奏版)"

    PERFORMER "胡伟立"

    INDEX 01 28:40:00

  TRACK 16 AUDIO

    TITLE "舞姿"

    PERFORMER "胡伟立"

    INDEX 01 30:13:00

  TRACK 17 AUDIO

    TITLE "悲"

    PERFORMER "胡伟立"

    INDEX 01 31:42:00

  TRACK 18 AUDIO

    TITLE "初识太极"

    PERFORMER "胡伟立"

    INDEX 01 33:17:00

  TRACK 19 AUDIO

    TITLE "校场比武"

    PERFORMER "胡伟立"

    INDEX 01 34:54:00

  TRACK 20 AUDIO

    TITLE "偷袭"

    PERFORMER "胡伟立"

    INDEX 01 37:48:00

  TRACK 21 AUDIO

    TITLE "太极拳"

    PERFORMER "胡伟立"

    INDEX 01 39:32:00

  TRACK 22 AUDIO

    TITLE "对峙"

    PERFORMER "胡伟立"

    INDEX 01 41:33:00

  TRACK 23 AUDIO

    TITLE "痴癫"

    PERFORMER "胡伟立"

    INDEX 01 42:55:00

  TRACK 24 AUDIO

    TITLE "情难独奏(插曲粤语版)"

    PERFORMER "胡伟立"

    INDEX 01 45:27:00

  TRACK 25 AUDIO

    TITLE "返朴归真"

    PERFORMER "胡伟立"

    INDEX 01 49:33:00

  TRACK 26 AUDIO

    TITLE "随缘"

    PERFORMER "胡伟立"

    INDEX 01 51:05:00

  TRACK 27 AUDIO

    TITLE "决战"

    PERFORMER "胡伟立"

    INDEX 01 52:51:00

  TRACK 28 AUDIO

    TITLE "随缘(主题曲粤语版)"

    PERFORMER "胡伟立"

    INDEX 01 54:42:00



1 个附件 售价 大小 下载 时间

胡伟立.-.[1993.太极张三丰.-.The.Tai-Chi.Master].专辑.(APE).rar 0 金币 251B 1345 次 15天前

#1楼
发帖时间:2018-02-04 21:57:47   |   回复数:2
liyouchai
超凡入圣№
谢谢楼主分享资源
15天前 #2楼
911degrees
超凡入圣№
非常感谢,谢谢分享
14天前 #3楼
游客组