imc77c
武林高手

[2019] [美国] [纪录] [打包] [BT下载][我们的星球][Our.Planet][8集全][英语中字][MKV][2160P][HEVC][影视魔王][NETFLIX][免金币]

-->

视频参数

General

Unique ID                      : 224850930154904779963627259303320612224 (0xA928B6C4D41C2D83885C15E30A87ED80)

Complete name                  : I:\我们的星球.Our.Planet.2019.NETFLIX.HEVC.2160P.ENGLISH.CHS.SE01 我们的星球.mkv

Format                         : Matroska

Format version                 : Version 4 / Version 2

File size                      : 3.07 GiB

Duration                       : 49 min 28 s

Overall bit rate               : 8 875 kb/s

Encoded date                   : UTC 2019-04-10 05:23:05

Writing application            : mkvmerge v18.0.0 ('Apricity') 64-bit

Writing library                : libebml v1.3.5 + libmatroska v1.4.8


Video

ID                             : 1

Format                         : HEVC

Format/Info                    : High Efficiency Video Coding

Format profile                 : [email protected]@Main

Codec ID                       : V_MPEGH/ISO/HEVC

Duration                       : 49 min 28 s

Bit rate                       : 8 105 kb/s

Width                          : 3 840 pixels

Height                         : 2 160 pixels

Display aspect ratio           : 16:9

Frame rate mode                : Constant

Frame rate                     : 23.976 (23976/1000) FPS

Original frame rate            : 23.000 FPS

Color space                    : YUV

Chroma subsampling             : 4:2:0

Bit depth                      : 8 bits

Bits/(Pixel*Frame)             : 0.041

Stream size                    : 2.80 GiB (91%)

Default                        : Yes

Forced                         : No


Audio

ID                             : 2

Format                         : E-AC-3

Format/Info                    : Enhanced Audio Coding 3

Format settings, Endianness    : Big

Codec ID                       : A_EAC3

Duration                       : 49 min 28 s

Bit rate mode                  : Constant

Bit rate                       : 768 kb/s

Channel(s)                     : 6 channels

Channel positions              : Front: L C R, Side: L R, LFE

Sampling rate                  : 48.0 kHz

Frame rate                     : 187.500 FPS (256 spf)

Compression mode               : Lossy

Stream size                    : 272 MiB (9%)

Language                       : English

Default                        : Yes

Forced                         : No



百度云网盘和谐速度很快,请大家及时转存,以免失效,若BT种子、磁力链接被迅雷和谐或0速度,请尝试使用UT或比特彗星等下载工具。

1.下载时迅雷软件如提示‘任务错误,未知错误,敏感资源,违规内容,版权等等’都是迅雷屏蔽资源的表现,和种子无关。 
2.迅雷对资源的屏蔽越来越严重,所以请大家不要使用最新版迅雷下载我们的资源,建议使用迅雷5.8或者极速迅雷。  
下载的人越多下载速度越快,把资源分享给您的朋友可以大大提高下载速度。 




1 个附件 售价 大小 下载 时间

我们的星球.Our.Planet.2019.NETFLIX.HEVC.2160P.ENGLISH.CHS.SE01.影视魔王.torrent 0 金币 125.82K 13517 次 16天前

#1楼
发帖时间:2019-04-10 19:20:40   |   回复数:25
heiying1978
武林高手
不错的影片
16天前 #2楼
photox
武林高手
引用 imc77c:

视频参数 GeneralUnique ID                      : 224850930154904779963627259303320612224 (0xA928B6C4D41C2D83885C15E30A87ED80)Complete name   &nb

有中文字幕吗?


16天前 #3楼
imc77c
武林高手
引用 photox:

有中文字幕吗?

简体中文必须有

16天前 #4楼
qlf330
无名小卒
非常不错的资源!!!谢谢分享!!!
16天前 #5楼
gwx118
小有名气
感谢分享
16天前 #6楼
bombzhang
小有名气
没金币,只能帮顶,不是不愿意花金币,是实在不知道哪儿挣金币
15天前 #7楼
photox
武林高手
引用 bombzhang:

没金币,只能帮顶,不是不愿意花金币,是实在不知道哪儿挣金币

发一帖一个金币。回复没有

15天前 #8楼
911degrees
隐世仙人♂
非常感谢,谢谢分享
15天前 #9楼
david19710102
超级版主

简中字幕的标示 请于[话数]后头. [英语中字][英语简繁多语字幕]之类 . 这样能更清楚表达. 谢谢~

简单说就是 语系后文字别

15天前 #10楼
imc77c
武林高手
引用 david19710102:

简中字幕的标示 请于[话数]后头. [英语中字]或[英语简繁多语字幕]之类 . 这样能更清楚表达. 谢谢~ 简单说就是 语系后文字别

第一次被设为精华 免金币下载了 激动的心啊

15天前 #11楼
david19710102
超级版主
引用 imc77c:

第一次被设为精华 免金币下载了 激动的心啊

原 [BT下载][我们的星球][Our.Planet][8集全][NETFLIX][HEVC][2160P][英语中字][免金币][影视魔王]

修 [BT下载][我们的星球][Our.Planet][8集全][英语中字][MKV][2160P][HEVC][影视魔王][NETFLIX][免金币]

     [下载方式][标题(中文/英文)][话数][语系文系][MKV/MP4/AVI/RMVB][分辨率(2160P/4K/1080P/720P...)][来源][其他备注说明]

     标准系参考:http://www.btbtt.co/thread-index-fid-950-tid-3562165.htm 

15天前 #12楼
imc77c
武林高手
引用 david19710102:

原 [BT下载][我们的星球][Our.Planet][8集全][NETFLIX][HEVC][2160P][英语中字][免金币][影视魔王]修 [BT下载][我们的星球][Our.Planet][8集全][英语中字][MKV][2160P][HEVC][影视魔王][NETFLIX][免金币]     [下载方式][标题(中文/英文)][话数][语系文系][

修改完毕

15天前 #13楼
jivce
江湖小虾
非常感谢,谢谢分享
15天前 #14楼
wenwong
小有名气
[免金币]

感谢分享,谢谢了
15天前 #15楼
jokingcheung
一代宗师
谢谢分享
14天前 #16楼
chana519
一派掌门
好资源 感谢分享!~
13天前 #17楼
superdudu666
小有名气
谢谢分享
11天前 #18楼
城墙
武林高手
好资源 感谢分享!
10天前 #19楼
allensakura
无名小卒
求教如何在Netflix下载4K源?
10天前 #20楼
游客组