呆呆狐狸
隐世仙人♂

[2019] [意剧] [动作] [打包] [BT下载][罪城苏布拉/苏博拉/致命信条/Suburra 第二季][全10集打包][英语英字][MKV][720P/1080P][片源]

-->


◎译  名 罪城苏布拉 第二季 / Suburra: Blood on Rome / 致命信条 / 苏博拉 / 血色罗马(港)

◎片  名 Suburra Season 2

◎年  代 2019

◎产  地 意大利

◎类  别 动作 / 犯罪

◎语  言 意大利语

◎上映日期 2019-02-22(意大利)

◎IMDb链接 http://www.imdb.com/title/tt7951406

◎BT之家整理 http://8btbtt.com/ 

◎片  长 50分钟

◎主  演 亚历桑德罗·博尔吉 Alessandro Borghi

      吉亚科莫·费拉拉 Giacomo Ferrara

      克劳迪亚·杰里尼 Claudia Gerini

      菲利波·尼格鲁 Filippo Nigro

      Cristina Pelliccia

      Federica Sabatini

      爱德华多·瓦达尔尼尼 Eduardo Valdarnini

      Jacopo Venturiero




◎简  介  


  《罪城苏布拉》是一部以罗马为背景的犯罪题材惊悚剧集,讲述了教会、政客、犯罪组织、当地黑帮和房产大亨之间的明争暗斗,以及他们在争权夺势时如何模糊了守法与犯罪的界线。故事的核心是三位背景、抱负、志趣迥异的年轻人,他们必须联手才能实现心中最深的欲念。《罪城苏布拉》改编自同名小说,但时间上的设定比原著早几年。这部震撼的 10 集剧集展现出风云变幻的 20 天,动作场面,犯罪元素,精彩剧情尽在其中。


Video
ID : 1
Format : AVC
Format/Info : Advanced Video Codec
Format profile : [email protected]
Format settings : CABAC / 3 Ref Frames
Format settings, CABAC : Yes
Format settings, ReFrames : 3 frames
Codec ID : V_MPEG4/ISO/AVC
Duration : 48 min 18 s
Bit rate mode : Variable
Bit rate : 4 369 kb/s
Nominal bit rate : 4 640 kb/s
Maximum bit rate : 6 960 kb/s
Width : 1 920 pixels
Height : 1 080 pixels
Display aspect ratio : 16:9
Frame rate mode : Constant
Frame rate : 25.000 FPS
Color space : YUV
Chroma subsampling : 4:2:0
Bit depth : 8 bits
Scan type : Progressive
Bits/(Pixel*Frame) : 0.084
Stream size : 1.47 GiB (87%)
Writing library : x264 core 148 r2715 7e75228
Encoding settings : cabac=1 / ref=3 / deblock=1:0:0 / analyse=0x1:0x111 / me=umh / subme=10 / psy=1 / psy_rd=1.00:0.00 / mixed_ref=1 / me_range=24 / chroma_me=1 / trellis=2 / 8x8dct=0 / cqm=0 / deadzone=21,11 / fast_pskip=1 / chroma_qp_offset=-2 / threads=8 / lookahead_threads=1 / sliced_threads=0 / nr=0 / decimate=1 / interlaced=0 / bluray_compat=0 / stitchable=1 / constrained_intra=0 / bframes=2 / b_pyramid=0 / b_adapt=2 / b_bias=0 / direct=3 / weightb=1 / open_gop=0 / weightp=2 / keyint=50 / keyint_min=26 / scenecut=0 / intra_refresh=0 / rc_lookahead=50 / rc=2pass / mbtree=1 / bitrate=4640 / ratetol=1.0 / qcomp=0.50 / qpmin=6 / qpmax=51 / qpstep=4 / cplxblur=20.0 / qblur=0.5 / vbv_maxrate=6960 / vbv_bufsize=9280 / nal_hrd=vbr / filler=0 / ip_ratio=1.40 / aq=1:1.00
Default : Yes
Forced : No

Audio
ID : 2
Format : E-AC-3
Format/Info : Enhanced AC-3
Commercial name : Dolby Digital Plus
Codec ID : A_EAC3
Duration : 48 min 18 s
Bit rate mode : Constant
Bit rate : 640 kb/s
Channel(s) : 6 channels
Channel layout : L R C LFE Ls Rs
Sampling rate : 48.0 kHz
Frame rate : 31.250 FPS (1536 SPF)
Compression mode : Lossy
Stream size : 221 MiB (13%)
Language : Italian
Service kind : Complete Main
Default : Yes
Forced : No

Text #1
ID : 3
Format : UTF-8
Codec ID : S_TEXT/UTF8
Codec ID/Info : UTF-8 Plain Text
Duration : 44 min 58 s
Bit rate : 57 b/s
Count of elements : 551
Stream size : 19.1 KiB (0%)
Language : English
Default : Yes
Forced : No

Text #2
ID : 4
Format : UTF-8
Codec ID : S_TEXT/UTF8
Codec ID/Info : UTF-8 Plain Text
Duration : 44 min 58 s
Bit rate : 52 b/s
Count of elements : 551
Stream size : 17.2 KiB (0%)
Title : Brazilian
Language : Portuguese
Default : No
Forced : No

Text #3
ID : 5
Format : UTF-8
Codec ID : S_TEXT/UTF8
Codec ID/Info : UTF-8 Plain Text
Duration : 44 min 58 s
Bit rate : 86 b/s
Count of elements : 551
Stream size : 28.5 KiB (0%)
Language : Bulgarian
Default : No
Forced : No

Text #4
ID : 6
Format : UTF-8
Codec ID : S_TEXT/UTF8
Codec ID/Info : UTF-8 Plain Text
Duration : 44 min 58 s
Bit rate : 52 b/s
Count of elements : 527
Stream size : 17.3 KiB (0%)
Language : Danish
Default : No
Forced : No

Text #5
ID : 7
Format : UTF-8
Codec ID : S_TEXT/UTF8
Codec ID/Info : UTF-8 Plain Text
Duration : 44 min 58 s
Bit rate : 51 b/s
Count of elements : 514
Stream size : 17.1 KiB (0%)
Language : Dutch
Default : No
Forced : No

Text #6
ID : 8
Format : UTF-8
Codec ID : S_TEXT/UTF8
Codec ID/Info : UTF-8 Plain Text
Duration : 44 min 58 s
Bit rate : 57 b/s
Count of elements : 550
Stream size : 18.9 KiB (0%)
Title : European
Language : Spanish
Default : No
Forced : No

Text #7
ID : 9
Format : UTF-8
Codec ID : S_TEXT/UTF8
Codec ID/Info : UTF-8 Plain Text
Duration : 44 min 58 s
Bit rate : 51 b/s
Count of elements : 527
Stream size : 16.9 KiB (0%)
Language : Finnish
Default : No
Forced : No

Text #8
ID : 10
Format : UTF-8
Codec ID : S_TEXT/UTF8
Codec ID/Info : UTF-8 Plain Text
Duration : 44 min 58 s
Bit rate : 55 b/s
Count of elements : 547
Stream size : 18.4 KiB (0%)
Language : French
Default : No
Forced : No

Text #9
ID : 11
Format : UTF-8
Codec ID : S_TEXT/UTF8
Codec ID/Info : UTF-8 Plain Text
Duration : 44 min 58 s
Bit rate : 57 b/s
Count of elements : 521
Stream size : 18.8 KiB (0%)
Language : German
Default : No
Forced : No

Text #10
ID : 12
Format : UTF-8
Codec ID : S_TEXT/UTF8
Codec ID/Info : UTF-8 Plain Text
Duration : 44 min 58 s
Bit rate : 89 b/s
Count of elements : 545
Stream size : 29.5 KiB (0%)
Language : Greek
Default : No
Forced : No

Text #11
ID : 13
Format : UTF-8
Codec ID : S_TEXT/UTF8
Codec ID/Info : UTF-8 Plain Text
Duration : 42 min 40 s
Bit rate : 65 b/s
Count of elements : 598
Stream size : 20.4 KiB (0%)
Language : Italian
Default : No
Forced : No

Text #12
ID : 14
Format : UTF-8
Codec ID : S_TEXT/UTF8
Codec ID/Info : UTF-8 Plain Text
Duration : 44 min 58 s
Bit rate : 53 b/s
Count of elements : 527
Stream size : 17.8 KiB (0%)
Language : Norwegian Bokmal
Default : No
Forced : No

Text #13
ID : 15
Format : UTF-8
Codec ID : S_TEXT/UTF8
Codec ID/Info : UTF-8 Plain Text
Duration : 44 min 58 s
Bit rate : 48 b/s
Count of elements : 551
Stream size : 15.9 KiB (0%)
Language : Polish
Default : No
Forced : No

Text #14
ID : 16
Format : UTF-8
Codec ID : S_TEXT/UTF8
Codec ID/Info : UTF-8 Plain Text
Duration : 44 min 58 s
Bit rate : 53 b/s
Count of elements : 551
Stream size : 17.7 KiB (0%)
Language : Portuguese
Default : No
Forced : No

Text #15
ID : 17
Format : UTF-8
Codec ID : S_TEXT/UTF8
Codec ID/Info : UTF-8 Plain Text
Duration : 44 min 58 s
Bit rate : 56 b/s
Count of elements : 551
Stream size : 18.7 KiB (0%)
Language : Spanish
Default : No
Forced : No

Text #16
ID : 18
Format : UTF-8
Codec ID : S_TEXT/UTF8
Codec ID/Info : UTF-8 Plain Text
Duration : 44 min 58 s
Bit rate : 54 b/s
Count of elements : 527
Stream size : 17.8 KiB (0%)
Language : Swedish
Default : No
Forced : No

Text #17
ID : 19
Format : UTF-8
Codec ID : S_TEXT/UTF8
Codec ID/Info : UTF-8 Plain Text
Duration : 44 min 58 s
Bit rate : 55 b/s
Count of elements : 547
Stream size : 18.1 KiB (0%)
Language : Turkish
Default : No
Forced : No



2 个附件 售价 大小 下载 时间

Suburra.S02.ITALIAN.720p.NF.WEBRip.DDP5.1.x264-STRiFE[92btbtt.com].torrent 0 金币 36.22K 609 次 11月前

Suburra.S02.ITALIAN.1080p.NF.WEBRip.DDP5.1.x264-STRiFE[92btbtt.com].torrent 0 金币 59.05K 819 次 11月前

#1楼
发帖时间:2019-02-22 20:50:12   |   回复数:1
911degrees
隐世仙人♂
非常感谢,谢谢分享
11月前 #2楼
游客组