呆呆狐狸
超级版主

[2016] [美国] [科幻] [打包] [BT下载][异能/超能力/超能凶警/Powers 第二季][全10集打包][英语无字][BD-MKV][1080P][片源]

-->


◎译  名 异能 第二季 / 超能凶警 / 超能力

◎片  名 Powers Season 2

◎年  代 2016

◎产  地 美国

◎类  别 剧情 / 科幻 / 犯罪

◎语  言 英语

◎上映日期 2016-05-31(美国)

◎IMDb评分 8.0/10 from 111 users

◎IMDb链接 http://www.imdb.com/title/tt4692286

◎豆瓣评分 6.8/10 from 84 users

◎豆瓣链接 https://movie.douban.com/subject/26384175/

◎集  数 10

◎片  长 60分钟

◎导  演 迈克尔·塞洛蒙 Mikael Salomon

◎编  剧 Michael Avon Oeming / Brian Michael Bendis / Charlie Huston / Remi Aubuchon

◎主  演 沙尔托·科普雷 Sharlto Copley

      Susan Heyward

      奥莱斯雅·鲁林 Olesya Rulin

      亚当·戈德利 Adam Godley

      马克斯·福勒 Max Fowler




◎简  介  


  第二季前三集将一次性播出,后续每周一集(共10集)。在第二季中,Christian Walker侦探发誓要侦破火箭女侠(他最心爱的英雄)的谋杀案。他的搭档Deena Pilgrim侦探虽然会帮助他,但她远没有他那么疯狂。与此同时,一个更加年轻、更加性感的新火箭女侠(Calista)准备将这座城市拖入一场异能人大战。第二季将聚焦Walker和Deena的关系,他们会变得更亲密。他们两人只有通力合作才能阻止犯罪,但Walker必须学会忘记过去,否则Deena没办法帮助他。但Deena自己也有棘手的问题。


Wil Wheaton在第二季中扮演一个「神秘而强大」的新角色。我们不知道这是什么角色,因为这个角色在漫画中都还没有出现(这个角色将在未来几期《异能》漫画中初次登场)。Tricia Helfer扮演联邦调查局特别探员Lange。这是一个来自漫画的角色,她与Walker侦探有一段交往史,两人之间的「性张力」显而易见。Lange游走于异能人世界和政府之间,只要是和她的目标一致,她会立刻成为盟友。反之,她会立刻成为敌人。当Walker和Deena试图查清火箭女侠遇害的真相时,她可能会制造一些麻烦。Enrico Colantoni扮演蒙大拿州的Bailey Brown参议员,是反异能人立法的主要推手。他自己曾经是一个异能人,代号叫做「钴骑士」(Cobalt Knight),如今他放弃使用异能,转而用政治手段来报效国家。Michael Madsen扮演漫画角色SuperShock,最有名但也最神秘的一个超级英雄。他在「事业」的巅峰期突然宣布退休,从公众眼中消失了整整四十年——直到火箭女侠遇害后才再次亮相。

火箭女侠死了,但是许多秘密曝光了。谁杀了火箭女侠?仔细重看第一季,你或许能得出结论。


Video
ID : 1
Format : AVC
Format/Info : Advanced Video Codec
Format profile : [email protected]
Format settings : CABAC / 4 Ref Frames
Format settings, CABAC : Yes
Format settings, ReFrames : 4 frames
Codec ID : V_MPEG4/ISO/AVC
Duration : 48 min 7 s
Bit rate : 11.5 Mb/s
Width : 1 920 pixels
Height : 1 080 pixels
Display aspect ratio : 16:9
Frame rate mode : Constant
Frame rate : 23.976 (24000/1001) FPS
Color space : YUV
Chroma subsampling : 4:2:0
Bit depth : 8 bits
Scan type : Progressive
Bits/(Pixel*Frame) : 0.231
Stream size : 3.86 GiB (88%)
Title : Powers.US.S02E05.Shaking.the.Tree.1080p.BluRay.x264.DTS-FGT
Writing library : x264 core 148 r2795M aaa9aa8
Encoding settings : cabac=1 / ref=4 / deblock=1:-2:-2 / analyse=0x3:0x113 / me=umh / subme=9 / psy=1 / psy_rd=1.00:0.15 / mixed_ref=1 / me_range=16 / chroma_me=1 / trellis=2 / 8x8dct=1 / cqm=0 / deadzone=21,11 / fast_pskip=1 / chroma_qp_offset=-3 / threads=24 / lookahead_threads=3 / sliced_threads=0 / nr=0 / decimate=1 / interlaced=0 / bluray_compat=0 / constrained_intra=0 / bframes=3 / b_pyramid=2 / b_adapt=1 / b_bias=0 / direct=3 / weightb=1 / open_gop=0 / weightp=2 / keyint=250 / keyint_min=25 / scenecut=40 / intra_refresh=0 / rc_lookahead=50 / rc=2pass / mbtree=1 / bitrate=11500 / ratetol=1.0 / qcomp=0.60 / qpmin=0 / qpmax=69 / qpstep=4 / cplxblur=20.0 / qblur=0.5 / vbv_maxrate=31250 / vbv_bufsize=31250 / nal_hrd=none / filler=0 / ip_ratio=1.40 / aq=1:1.00
Language : English
Default : Yes
Forced : No

Audio
ID : 2
Format : DTS
Format/Info : Digital Theater Systems
Codec ID : A_DTS
Duration : 48 min 6 s
Bit rate mode : Constant
Bit rate : 1 509 kb/s
Channel(s) : 6 channels
Channel layout : C L R Ls Rs LFE
Sampling rate : 48.0 kHz
Frame rate : 93.750 FPS (512 SPF)
Bit depth : 16 bits
Compression mode : Lossy
Stream size : 519 MiB (12%)
Title : Powers.US.S02E05.Shaking.the.Tree.1080p.BluRay.x264.DTS-FGT
Language : English
Default : Yes
Forced : No

Menu
00:00:00.000 : en:Chapter 1
00:03:10.190 : en:Chapter 2
00:17:11.030 : en:Chapter 3
00:25:40.164 : en:Chapter 4
00:32:53.597 : en:Chapter 5
00:40:14.412 : en:Chapter 6
00:47:02.820 : en:Chapter 7
00:47:28.846 : en:Chapter 8



1 个附件 售价 大小 下载 时间

Powers.US.S02.1080p.BluRay.x264.DTS-FGT[btbtt.me].torrent 0 金币 100.82K 469 次 1月前

#1楼
发帖时间:2019-02-12 00:28:16   |   回复数:1
911degrees
隐世仙人♂
非常感谢,谢谢分享
1月前 #2楼
游客组