呆呆狐狸
超级版主

[2018] [德国] [历史] [打包] [BT下载][从海底出击/Das Boot 第一季][全08集打包][英语无字][MKV][720P/1080P][片源]

-->

◎译  名 从海底出击 第一季

◎片  名 Das Boot Season 1

◎年  代 2018

◎产  地 德国

◎类  别 剧情 / 历史 / 战争

◎语  言 德语 / 英语 / 法语

◎上映日期 2018-11-23(德国)

◎IMDb评分 6.8/10 from 393 users

◎IMDb链接 http://www.imdb.com/title/tt5830254

◎BT之家整理 http://www.51btbtt.com/

◎集  数 8

◎片  长 60分钟

◎导  演 安德烈亚斯·普罗查斯卡 Andreas Prochaska

◎编  剧 Johannes W. Betz / Tony Saint / 西蒙·艾伦 Simon Allen / 洛塔尔·G·布赫海姆 Lothar G. Buchheim / Laura Grace / 贝内迪克特·罗斯考 Benedikt Roeskau

◎主  演 丽兹·卡潘 Lizzy Caplan

      弗兰茨·丁达 Franz Dinda

      薇姬·克里普斯 Vicky Krieps

      里克·奥肯 Rick Okon

      罗伯特·施塔德洛伯 Robert Stadlober

      August wittgenstein

      汤姆·拉斯齐哈 Tom Wlaschiha

      文森特·卡塞瑟 Vincent Kartheiser

      詹姆斯·达西 James D'Arcy

      赖纳·博克 Rainer Bock

      蒂埃里·弗雷蒙 Thierry Frémont




◎简  介  


  德国巴伐利亚工作室将翻拍《从海底出击》。影片讲述二战时期,发生在深海U型潜艇上的惊险故事,原版由沃尔夫冈·彼德森执导,是影史上最成功的德国电影之一,它在当时获得了包括最佳导演在内的6项奥斯卡提名。目前,巴伐利亚工作室将尚未透露影片选角信息及拍摄计划。


Video
ID : 1
Format : AVC
Format/Info : Advanced Video Codec
Format profile : [email protected]
Format settings : CABAC / 4 Ref Frames
Format settings, CABAC : Yes
Format settings, ReFrames : 4 frames
Codec ID : V_MPEG4/ISO/AVC
Duration : 1 h 0 min
Bit rate : 6 931 kb/s
Width : 1 920 pixels
Height : 1 080 pixels
Display aspect ratio : 16:9
Frame rate mode : Constant
Frame rate : 25.000 FPS
Color space : YUV
Chroma subsampling : 4:2:0
Bit depth : 8 bits
Scan type : Progressive
Bits/(Pixel*Frame) : 0.134
Stream size : 2.91 GiB (95%)
Writing library : x264 core 157 r2935 545de2f
Encoding settings : cabac=1 / ref=4 / deblock=1:0:0 / analyse=0x3:0x113 / me=hex / subme=8 / psy=1 / psy_rd=1.00:0.00 / mixed_ref=1 / me_range=16 / chroma_me=1 / trellis=2 / 8x8dct=1 / cqm=0 / deadzone=21,11 / fast_pskip=1 / chroma_qp_offset=-2 / threads=18 / lookahead_threads=3 / sliced_threads=0 / nr=0 / decimate=1 / interlaced=0 / bluray_compat=0 / constrained_intra=0 / bframes=3 / b_pyramid=2 / b_adapt=1 / b_bias=0 / direct=3 / weightb=1 / open_gop=0 / weightp=2 / keyint=250 / keyint_min=25 / scenecut=40 / intra_refresh=0 / rc_lookahead=50 / rc=crf / mbtree=1 / crf=17.0 / qcomp=0.60 / qpmin=0 / qpmax=69 / qpstep=4 / ip_ratio=1.40 / aq=1:1.00
Default : Yes
Forced : No
Color range : Full
Color primaries : BT.709
Transfer characteristics : BT.709
Matrix coefficients : BT.709

Audio
ID : 2
Format : AC-3
Format/Info : Audio Coding 3
Commercial name : Dolby Digital
Codec ID : A_AC3
Duration : 1 h 0 min
Bit rate mode : Constant
Bit rate : 384 kb/s
Channel(s) : 2 channels
Channel layout : L R
Sampling rate : 48.0 kHz
Frame rate : 31.250 FPS (1536 SPF)
Bit depth : 16 bits
Compression mode : Lossy
Stream size : 165 MiB (5%)
Service kind : Complete Main
Default : Yes
Forced : No




2 个附件 售价 大小 下载 时间

Das.Boot.S01.SUBBED.1080p.AHDTV.x264-FaiLED[btbtt.me].torrent 0 金币 53.99K 2234 次 6月前

Das.Boot.S01.SUBBED.720p.AHDTV.x264-FaiLED[btbtt.me].torrent 0 金币 46.50K 980 次 6月前

#1楼
发帖时间:2019-02-11 21:54:07   |   回复数:3
911degrees
隐世仙人♂
非常感谢,谢谢分享
6月前 #2楼
金枪西门庆
一派掌门
感谢楼主分享,支持发布。
6月前 #3楼
t735
一派掌门
可惜没有中文字幕
5月前 #4楼
游客组