呆呆狐狸
超级版主

[合 集] [英国] [纪录] [打包] [BT下载][惊天工程/Impossible Engineering 第一至五季][全05季打包][英语无字][MKV][720P][片源]

-->


◎译  名 惊天工程 / 不可能的工程 / 惊奇工程

◎片  名 Impossible Engineering

◎年  代 2015

◎产  地 英国

◎语  言 英语

◎IMDb评分 7.2/10 from 103 users

◎IMDb链接 http://www.imdb.com/title/tt4648556

◎BT之家整理 http://www.51btbtt.com/



◎简  介  


  探索频道推出的,介绍人类各项大工程制造或建造的纪录片。



Video
ID : 2
Format : AVC
Format/Info : Advanced Video Codec
Format profile : [email protected]
Format settings : CABAC / 5 Ref Frames
Format settings, CABAC : Yes
Format settings, ReFrames : 5 frames
Codec ID : V_MPEG4/ISO/AVC
Duration : 42 min 28 s
Bit rate : 4 473 kb/s
Width : 1 280 pixels
Height : 720 pixels
Display aspect ratio : 16:9
Frame rate mode : Constant
Frame rate : 23.976 FPS
Color space : YUV
Chroma subsampling : 4:2:0
Bit depth : 8 bits
Scan type : Progressive
Bits/(Pixel*Frame) : 0.202
Stream size : 1.33 GiB (97%)
Writing library : x264 core 157 r2935 545de2f
Encoding settings : cabac=1 / ref=5 / deblock=1:-3:-3 / analyse=0x3:0x113 / me=hex / subme=8 / psy=1 / psy_rd=1.00:0.00 / mixed_ref=1 / me_range=16 / chroma_me=1 / trellis=2 / 8x8dct=1 / cqm=0 / deadzone=21,11 / fast_pskip=1 / chroma_qp_offset=-2 / threads=34 / lookahead_threads=5 / sliced_threads=0 / nr=0 / decimate=1 / interlaced=0 / bluray_compat=0 / constrained_intra=0 / bframes=3 / b_pyramid=2 / b_adapt=2 / b_bias=0 / direct=3 / weightb=1 / open_gop=0 / weightp=2 / keyint=250 / keyint_min=25 / scenecut=40 / intra_refresh=0 / rc_lookahead=50 / rc=crf / mbtree=1 / crf=18.0 / qcomp=0.60 / qpmin=0 / qpmax=69 / qpstep=4 / ip_ratio=1.40 / aq=1:1.00
Language : English
Default : Yes
Forced : No
Color range : Limited
Matrix coefficients : BT.709

Audio
ID : 1
Format : AAC LC SBR
Format/Info : Advanced Audio Codec Low Complexity with Spectral Band Replication
Commercial name : HE-AAC
Format settings : Explicit
Codec ID : A_AAC-2
Duration : 42 min 28 s
Bit rate : 127 kb/s
Channel(s) : 2 channels
Channel layout : L R
Sampling rate : 48.0 kHz
Frame rate : 23.438 FPS (2048 SPF)
Compression mode : Lossy
Stream size : 38.5 MiB (3%)
Language : English
Default : Yes
Forced : No



#1楼
发帖时间:2019-02-11 21:48:34   |   回复数:4
911degrees
隐世仙人♂
非常感谢,谢谢分享
2月前 #2楼
chulps
一代宗师
~ 感谢分享 ~ 感谢 ~
2月前 #3楼
金枪西门庆
一派掌门
感谢楼主分享,支持发布。
2月前 #4楼
galaxygio
武林高手
tq
2月前 #5楼
游客组