呆呆狐狸
隐世仙人♂

[合 集] [意剧] [犯罪] [打包] [BT下载][格莫拉/Gomorrah 第一至三季][全03季打包][意语英字][BD-MKV][720P/1080P][片源]

-->

◎译  名 格莫拉 第一季 / 蛾摩拉

◎片  名 Gomorrah - La serie Season 1

◎年  代 2014

◎产  地 意大利 / 德国

◎类  别 犯罪

◎语  言 意大利语

◎上映日期 2014-05-06(意大利)

◎IMDb评分 8.7/10 from 20420 users

◎IMDb链接 http://www.imdb.com/title/tt2049116

◎豆瓣评分 9.1/10 from 2187 users

◎豆瓣链接 https://movie.douban.com/subject/7051471/

◎BT之家整理 http://www.btbtt.us/

◎集  数 12

◎片  长 55分钟

◎导  演 斯蒂法诺·索利马 Stefano Sollima / Claudio Cupellini / 弗朗西斯卡·科曼茨尼 Francesca Comencini

◎编  剧 Leonardo Fasoli / 罗伯特·萨维亚诺 Roberto Saviano / Ludovica Rampoldi / Filippo Gravino

◎主  演 Marco D'Amore

      Fortunato Cerlino

      Salvatore Esposito




◎简  介  


  西罗(马可·达摩雷饰)是萨瓦斯塔诺家族老大彼得(福尔图纳托·切尔力诺饰),和他的儿子杰尼(萨瓦托雷·艾斯博斯托饰)崭露头角的亲信。策略需要,为争夺市场的控制权,与敌对家族互相暴力报复。故事叙述从家族老大被抓、权力真空出现后开始展开,尽管杰尼在血统上是下一任继承人,却似乎西罗才是最具有竞争力也最可靠的人选。


Video
ID : 1
Format : AVC
Format/Info : Advanced Video Codec
Format profile : [email protected]
Format settings : CABAC / 5 Ref Frames
Format settings, CABAC : Yes
Format settings, ReFrames : 5 frames
Codec ID : V_MPEG4/ISO/AVC
Duration : 54 min 17 s
Bit rate : 6 341 kb/s
Width : 1 280 pixels
Height : 688 pixels
Display aspect ratio : 1.85:1
Frame rate mode : Constant
Frame rate : 25.000 FPS
Color space : YUV
Chroma subsampling : 4:2:0
Bit depth : 8 bits
Scan type : Progressive
Bits/(Pixel*Frame) : 0.288
Stream size : 2.40 GiB (91%)
Writing library : x264 core 144 r2525 40bb568
Encoding settings : cabac=1 / ref=5 / deblock=1:0:0 / analyse=0x3:0x133 / me=umh / subme=7 / psy=1 / psy_rd=1.00:0.00 / mixed_ref=1 / me_range=16 / chroma_me=1 / trellis=1 / 8x8dct=1 / cqm=0 / deadzone=21,11 / fast_pskip=0 / chroma_qp_offset=-2 / threads=12 / lookahead_threads=2 / sliced_threads=0 / nr=0 / decimate=1 / interlaced=0 / bluray_compat=0 / constrained_intra=0 / bframes=3 / b_pyramid=2 / b_adapt=1 / b_bias=0 / direct=1 / weightb=1 / open_gop=0 / weightp=2 / keyint=250 / keyint_min=25 / scenecut=40 / intra_refresh=0 / rc_lookahead=40 / rc=2pass / mbtree=1 / bitrate=6341 / ratetol=1.0 / qcomp=0.60 / qpmin=0 / qpmax=69 / qpstep=4 / cplxblur=20.0 / qblur=0.5 / ip_ratio=1.40 / aq=1:1.00
Language : English
Default : Yes
Forced : No

Audio
ID : 2
Format : AC-3
Format/Info : Audio Coding 3
Commercial name : Dolby Digital
Codec ID : A_AC3
Duration : 54 min 16 s
Bit rate mode : Constant
Bit rate : 640 kb/s
Channel(s) : 2 channels
Channel layout : L R
Sampling rate : 48.0 kHz
Frame rate : 31.250 FPS (1536 SPF)
Bit depth : 16 bits
Compression mode : Lossy
Stream size : 248 MiB (9%)
Language : Italian
Service kind : Complete Main
Default : Yes
Forced : No

Text
ID : 3
Format : UTF-8
Codec ID : S_TEXT/UTF8
Codec ID/Info : UTF-8 Plain Text
Duration : 50 min 40 s
Bit rate : 32 b/s
Count of elements : 399
Stream size : 12.0 KiB (0%)
Title : English
Language : English
Default : Yes
Forced : Yes

Menu
00:00:00.000 : en:00:00:00.000
00:10:00.000 : en:00:10:00.000
00:20:00.000 : en:00:20:00.000
00:30:00.000 : en:00:30:00.000
00:40:00.600 : en:00:40:00.600



6 个附件 售价 大小 下载 时间

Gomorrah.S01.ITALIAN.720p.BluRay.x264-AMIRITE[btbtt.me].torrent 0 金币 80.51K 2387 次 2019-1-15

Gomorrah.S01.ITALIAN.1080p.BluRay.x264-WGZ[btbtt.me].torrent 0 金币 169.33K 4130 次 2019-1-15

Gomorrah.S02.ITALIAN.720p.BluRay.x264-GHOULS[btbtt.me].torrent 0 金币 72.65K 1519 次 2019-1-15

Gomorrah.S02.ITALIAN.1080p.BluRay.x264-GHOULS[btbtt.me].torrent 0 金币 108.33K 2310 次 2019-1-15

Gomorrah.S03.ITALIAN.720p.BluRay.x264-BEDLAM[btbtt.me].torrent 0 金币 68.60K 1806 次 2019-1-15

Gomorrah.S03.ITALIAN.1080p.BluRay.x264-BEDLAM[btbtt.me].torrent 0 金币 120.47K 2296 次 2019-1-15

#1楼
发帖时间:2019-01-15 12:08:31   |   回复数:1
911degrees
隐世仙人♂
非常感谢,谢谢分享
2019-1-15 #2楼
游客组