呆呆狐狸
超级版主

[2018] [英国] [科幻] [打包] [BT下载][神秘博士/Doctor Who 第十一季][全10集打包][英语无字][BD-MKV][720P/1080P][片源]

-->

◎译  名 神秘博士 第十一季

◎片  名 Doctor Who Season 11

◎年  代 2018

◎产  地 英国

◎类  别 剧情/科幻

◎语  言 英语

◎上映日期 2018-10-07(英国)

◎IMDb评分  7.9/10 from 1,481 users

◎IMDb链接  http://www.imdb.com/title/tt7542168/

◎BT之家整理 http://www.btbtt.us/

◎集  数 10

◎片  长 45分钟

◎导  演 萨利·阿普拉哈米安 Sallie Aprahamian / 珍妮弗·佩罗特 Jennifer Perrott

◎主  演 朱迪·惠特克 Jodie Whittaker

      托辛·科尔 Tosin Cole

      曼迪·吉尔 Mandip Gill

      布莱德利·沃尔什 Bradley Walsh

      Hazel Atherton


◎简  介


  众所周知,Jodie Whittaker将从本季开始扮演第13任博士,她也是《神秘博士》55年历史上首位女博士。一些男权主义者对此表示了强烈「愤慨」,但有更多的人站出来维护BBC和制片人的决定,对Jodie Whittaker表示支持——包括她的前任Peter Capaldi。只是有些媒体担心,Jodie Whittaker以前是演严肃剧的,她能不能演好《神秘博士》这种带有轻喜剧性质的科幻剧?除了Jodie Whittaker之外,本季的演员还包括Bradley Walsh、Mandip Gill、Tosin Cole。不仅演出阵容是全新的,就连剧集总监也是全新的——Chris Chibnall正式接替了Steven Moffat的职位。Chris Chibnall甚至改变了该剧的镜头展现形式,启用了全剧历史上第一个「非白人」编剧和更多的女性编剧(55年来该剧只有9位女性编剧),引入了两位女性导演,招募了全女性组成的编辑剪辑组,重制了你已经听习惯了的片头主题曲,使用了新的字体,设计了新的「Doctor Who」标识,抛弃了每季都会有的「两集大故事」,签约了新的特效制作组,并将常规的一个博士伙伴扩充为三个博士伙伴(这是有充分理由的),甚至多年来沿用的周六档期都破天荒第一次改成了周日档期。总而言之,本季《神秘博士》不再是你印象中的传统《神秘博士》,你几乎可以将它当做一部全新的剧集。



      在11×01《The Woman Who Fell To Earth》中,新角色Ryan Sinclair、Yasmin Khan和Graham O’Brien都生活在南约克郡的谢菲尔德。他们原本是普通人,但他们的生活即将彻底改变——一个记不起自己姓名的神秘女人突然从夜空中降下,对他们说了一番令人费解的话。他们是否能信任她的话?她是否能帮忙解决这座城市中发生的各种怪事?Sharon D Clarke、Johnny Dixon和Samuel Oatley客座演出。在11×02《The Ghost Monument》中,博士和她的新朋友虽然还活着,但远远没有摆脱险境。他们还在为彼此的相遇感到困惑,但在一个充满敌意的外星环境中,他们要如何解决「Desolation」的秘密?还有……Angstrom和Epzo究竟是谁?Shaun Dooley、Susan Lynch、Art Malik客座演出。



Video
ID : 1
Format : AVC
Format/Info : Advanced Video Codec
Format profile : [email protected]
Format settings : CABAC / 4 Ref Frames
Format settings, CABAC : Yes
Format settings, ReFrames : 4 frames
Codec ID : V_MPEG4/ISO/AVC
Duration : 49 min 26 s
Bit rate : 11.1 Mb/s
Width : 1 920 pixels
Height : 960 pixels
Display aspect ratio : 2.000
Frame rate mode : Constant
Frame rate : 25.000 FPS
Color space : YUV
Chroma subsampling : 4:2:0
Bit depth : 8 bits
Scan type : Progressive
Bits/(Pixel*Frame) : 0.242
Stream size : 3.85 GiB (88%)
Writing library : x264 core 157 r2935 545de2f
Encoding settings : cabac=1 / ref=4 / deblock=1:-3:-3 / analyse=0x3:0x113 / me=umh / subme=8 / psy=1 / psy_rd=1.00:0.00 / mixed_ref=1 / me_range=16 / chroma_me=1 / trellis=1 / 8x8dct=1 / cqm=0 / deadzone=21,11 / fast_pskip=1 / chroma_qp_offset=-2 / threads=24 / lookahead_threads=4 / sliced_threads=0 / nr=0 / decimate=1 / interlaced=0 / bluray_compat=0 / constrained_intra=0 / bframes=3 / b_pyramid=2 / b_adapt=2 / b_bias=0 / direct=3 / weightb=1 / open_gop=0 / weightp=2 / keyint=250 / keyint_min=25 / scenecut=40 / intra_refresh=0 / rc_lookahead=50 / rc=2pass / mbtree=1 / bitrate=11147 / ratetol=1.0 / qcomp=0.60 / qpmin=0 / qpmax=69 / qpstep=4 / cplxblur=20.0 / qblur=0.5 / ip_ratio=1.40 / aq=3:0.80
Default : Yes
Forced : No

Audio
ID : 2
Format : DTS
Format/Info : Digital Theater Systems
Codec ID : A_DTS
Duration : 49 min 26 s
Bit rate mode : Constant
Bit rate : 1 509 kb/s
Channel(s) : 6 channels
Channel layout : C L R Ls Rs LFE
Sampling rate : 48.0 kHz
Frame rate : 93.750 FPS (512 SPF)
Bit depth : 24 bits
Compression mode : Lossy
Stream size : 534 MiB (12%)
Language : English
Default : Yes
Forced : No

Menu
00:00:00.000 : en:Chapter 01
00:00:36.240 : en:Chapter 02
00:05:26.360 : en:Chapter 03
00:10:30.400 : en:Chapter 04
00:15:18.880 : en:Chapter 05
00:20:01.080 : en:Chapter 06
00:24:36.320 : en:Chapter 07
00:31:04.720 : en:Chapter 08
00:36:54.200 : en:Chapter 09
00:40:55.320 : en:Chapter 10
00:44:22.800 : en:Chapter 11
00:48:40.640 : en:Chapter 12



2 个附件 售价 大小 下载 时间

Doctor.Who.2005.S11.720p.BluRay.x264-SHORTBREHD[btbtt.me].torrent 0 金币 58.89K 420 次 5月前

Doctor.Who.2005.S11.1080p.BluRay.x264-SHORTBREHD[btbtt.me].torrent 0 金币 101.57K 413 次 5月前

#1楼
发帖时间:2019-01-12 23:54:08   |   回复数:1
911degrees
隐世仙人♂
非常感谢,谢谢分享
5月前 #2楼
游客组