呆呆狐狸
超级版主

[2017] [美国] [喜剧] [打包] [BT下载][大学同学/Friends from College 第一季][全08集打包][英语中字][MKV][720P/1080P/2160P][片源]

-->

注:Netflix版片源 内含官方中字  更多字幕详见下面参数列表


◎译  名 大学同学 第一季 / 大学同窗 / 大学死党

◎片  名 Friends from College Season 1

◎年  代 2017

◎产  地 美国

◎类  别 剧情 / 喜剧

◎语  言 英语

◎上映日期 2017-07-14(美国)

◎IMDb评分 6.6/10 from 10453 users

◎IMDb链接 http://www.imdb.com/title/tt5565334

◎豆瓣评分 6.5/10 from 745 users

◎豆瓣链接 https://movie.douban.com/subject/26860874/

◎BT之家整理 http://www.btbtt.us/

◎集  数 8

◎片  长 30分钟

◎导  演 尼古拉斯·斯托勒 Nicholas Stoller

◎编  剧 尼古拉斯·斯托勒 Nicholas Stoller / 蒂芙尼·巴雷特 Tiffany Barrett / 弗朗西斯卡·德尔班科 Francesca Delbanco

◎主  演 科甘-迈克尔·凯 Keegan-Michael Key

      弗莱德·萨维奇 Fred Savage

      奈特·法松 Nat Faxon

      安妮·帕里西 Annie Parisse

      Jae Suh Park

      寇碧·史莫德斯 Cobie Smulders

      比利·艾希纳 Billy Eichner

      格雷格·格曼 Greg Germann

      格里芬·罗伯特·福克纳 Griffin Robert Faulkner

      布拉德·莫里斯 Brad Morris

      克里斯托弗·尼古拉斯·史密斯 Christopher Nicholas Smith

      伊克·巴里霍尔兹 Ike Barinholtz

      希瑟·伯恩斯 Heather Burns




◎简  介  


  Netflix喜剧《大学同学》,讲述一群曾经哈佛毕业的朋友,目前到了四十多岁,有的人成功,有的人则不然,他们相互间有着复杂的关系。主要探索旧时的友谊、曾经的爱情、以及当前的家庭和工作生活。



Video
ID : 1
Format : AVC
Format/Info : Advanced Video Codec
Format profile : [email protected]
Format settings : CABAC / 6 Ref Frames
Format settings, CABAC : Yes
Format settings, ReFrames : 6 frames
Codec ID : V_MPEG4/ISO/AVC
Duration : 34 min 56 s
Bit rate : 38.4 Mb/s
Width : 3 840 pixels
Height : 1 920 pixels
Display aspect ratio : 2.000
Frame rate mode : Constant
Frame rate : 23.976 (24000/1001) FPS
Color space : YUV
Chroma subsampling : 4:2:0
Bit depth : 8 bits
Scan type : Progressive
Bits/(Pixel*Frame) : 0.217
Stream size : 9.38 GiB (99%)
Writing library : x264 core 144 r2525 40bb568
Encoding settings : cabac=1 / ref=6 / deblock=1:-3:-3 / analyse=0x3:0x133 / me=umh / subme=10 / psy=1 / psy_rd=1.00:0.00 / mixed_ref=1 / me_range=48 / chroma_me=1 / trellis=2 / 8x8dct=1 / cqm=0 / deadzone=21,11 / fast_pskip=0 / chroma_qp_offset=-2 / threads=24 / lookahead_threads=4 / sliced_threads=0 / nr=0 / decimate=0 / interlaced=0 / bluray_compat=0 / constrained_intra=0 / bframes=8 / b_pyramid=2 / b_adapt=2 / b_bias=0 / direct=3 / weightb=1 / open_gop=0 / weightp=2 / keyint=250 / keyint_min=23 / scenecut=40 / intra_refresh=0 / rc=crf / mbtree=0 / crf=20.0 / qcomp=0.60 / qpmin=0 / qpmax=69 / qpstep=4 / ip_ratio=1.30 / pb_ratio=1.20 / aq=3:0.80
Language : English
Default : Yes
Forced : No

Audio
ID : 2
Format : AC-3
Format/Info : Audio Coding 3
Commercial name : Dolby Digital
Codec ID : A_AC3
Duration : 34 min 56 s
Bit rate mode : Constant
Bit rate : 384 kb/s
Channel(s) : 6 channels
Channel layout : L R C LFE Ls Rs
Sampling rate : 48.0 kHz
Frame rate : 31.250 FPS (1536 SPF)
Bit depth : 16 bits
Compression mode : Lossy
Stream size : 96.0 MiB (1%)
Language : English
Service kind : Complete Main
Default : Yes
Forced : No

Text #1
ID : 3
Format : UTF-8
Codec ID : S_TEXT/UTF8
Codec ID/Info : UTF-8 Plain Text
Duration : 31 min 55 s
Bit rate : 90 b/s
Count of elements : 643
Stream size : 21.2 KiB (0%)
Language : English
Default : No
Forced : No

Text #2
ID : 4
Format : UTF-8
Codec ID : S_TEXT/UTF8
Codec ID/Info : UTF-8 Plain Text
Duration : 32 min 4 s
Bit rate : 77 b/s
Count of elements : 608
Stream size : 18.2 KiB (0%)
Language : Spanish
Default : No
Forced : No

Text #3
ID : 5
Format : UTF-8
Codec ID : S_TEXT/UTF8
Codec ID/Info : UTF-8 Plain Text
Duration : 31 min 59 s
Bit rate : 77 b/s
Count of elements : 577
Stream size : 18.2 KiB (0%)
Language : French
Default : No
Forced : No

Text #4
ID : 6
Format : UTF-8
Codec ID : S_TEXT/UTF8
Codec ID/Info : UTF-8 Plain Text
Duration : 32 min 4 s
Bit rate : 83 b/s
Count of elements : 610
Stream size : 19.5 KiB (0%)
Title : Simplified
Language : Chinese
Default : No
Forced : No

Text #5
ID : 7
Format : UTF-8
Codec ID : S_TEXT/UTF8
Codec ID/Info : UTF-8 Plain Text
Duration : 32 min 4 s
Bit rate : 85 b/s
Count of elements : 610
Stream size : 20.0 KiB (0%)
Title : Traditional
Language : Chinese
Default : No
Forced : No



#1楼
发帖时间:2019-01-11 18:10:09   |   回复数:1
911degrees
隐世仙人♂
非常感谢,谢谢分享
5月前 #2楼
游客组