呆呆狐狸
超级版主

[2018] [美国] [奇幻] [打包] [BT下载][泰坦/Titans 第一季][全11集打包][英语中字][MKV][720P/1080P][片源]

-->

注:Netflix版片源 内含官方中字  更多字幕详见下面参数列表

◎译  名 泰坦 第一季

◎片  名 Titans Season 1

◎年  代 2018

◎产  地 美国

◎类  别 动作 / 科幻 / 奇幻

◎语  言 英语

◎上映日期 2018-10-03(纽约漫展) / 2018-10-12(美国)

◎IMDb评分 8.3/10 from 16278 users

◎IMDb链接 http://www.imdb.com/title/tt1043813

◎豆瓣评分 8.3/10 from 4706 users

◎豆瓣链接 https://movie.douban.com/subject/2137327/

◎BT之家整理 http://www.btbtt.us/

◎集  数 11

◎片  长 45分钟

◎导  演 布拉德·安德森 Brad Anderson / 约翰·福西特 John Fawcett

◎编  剧 格里格·伯兰蒂 Greg Berlanti / 阿齐瓦·高斯曼 Akiva Goldsman / 乔夫·琼斯 Geoff Johns

◎主  演 布伦顿·思韦茨 Brenton Thwaites

      安娜·迪奥普 Anna Diop

      蒂根·克罗夫特 Teagan Croft

      瑞恩·波特 Ryan Potter

      林赛·高特 Lindsey Gort

      希穆斯·德维 Seamus Dever

      敏卡·凯利 Minka Kelly

      阿兰·里奇森 Alan Ritchson

      柯伦·沃尔特斯 Curran Walters

      布鲁诺·庇屈 Bruno Bichir

      艾普尔·鲍白 April Bowlby

      杰妮·罗斯 Jeni Ross

      洛根·汤普森 Logan Thompson

      米根·费伊 Meagen Fay

      康纳·莱斯利 Conor Leslie

      贾勒斯·J·默茨 Jarreth J. Merz

      莉莎·科伦-扎亚斯 Liza Colón-Zayas

      雪琳·芬 Sherilyn Fenn

      马丁·罗奇 Martin Roach

      菲利普·贾勒特 Phillip Jarrett

      史蒂夫·博伊尔 Steve Boyle

      鲍比·布朗 Bobby Brown




◎简  介  


  华纳兄弟与DC Entertainment合作的DC线上频道「DC Universe」确定于美国时间9月15日正式上线,另外其首部原创真人剧《泰坦 Titans》则会在10月12日上线。

《泰坦》由Greg Berlanti﹑Akiva Goldsman(负责编剧)﹑Geoff Johns﹑Sarah Schechter合作开发,剧集讲述Dick Grayson(剧中饰演罗宾,现漫画里名号为夜翼,Brenton Thwaites饰)从暗处现身,并带领起这支无畏无惧的英雄团队。

Anna Diop饰演星火/Starfire/Koriand’r,态度强硬﹑不爱废话的她是位外星公主,她从战士系的星球来到地球寻求庇护;拥有能量投射及飞行能力的她为了在地球找到自己的位置,因而接触泰坦这英雄团队。

《超能陆战队 Big Hero 6》声演主角Hiro Hamada的Ryan Potter饰演Garfield “Gar” Logan,亦即是野兽男孩/Beast Boy;小时的他因遗传学家双亲要进行研究而被带到非洲热带雨林,但他不幸患上了对人致命的疾病Sakutia。而在实验性药物的治疗下,Gar保住了小命,但也多了副作用:首先他的皮肤及头发永久性的变了绿色,另外他亦有了化身成各种动物的能力。

Teagan Croft饰演渡鸦/Raven,她是超维度恶魔的女儿,拥有强大的魔力。但首先她得学会保持冷静,不然可能因魔力而黑化。

Alan Ritchson饰演战鹰/Hawk,原名Hank Hall﹑Minka Kelly饰演白鸽/Dove,原名Dawn Granger,他们是义警拍档亦是一对情侣,从「混沌神」与「规律神」手中得到力量。战鹰是个充满攻击性,很会冒犯别人的家伙,相对白鸽则是重视战略﹑防守性的轻盈妹子。Lindsey Gort饰演警探Amy Rohrbach。


Video
ID : 1
Format : AVC
Format/Info : Advanced Video Codec
Format profile : [email protected]
Format settings : CABAC / 3 Ref Frames
Format settings, CABAC : Yes
Format settings, ReFrames : 3 frames
Codec ID : V_MPEG4/ISO/AVC
Duration : 54 min 53 s
Bit rate mode : Variable
Bit rate : 3 650 kb/s
Maximum bit rate : 5 475 kb/s
Width : 1 920 pixels
Height : 1 080 pixels
Display aspect ratio : 16:9
Frame rate mode : Constant
Frame rate : 23.976 (24000/1001) FPS
Color space : YUV
Chroma subsampling : 4:2:0
Bit depth : 8 bits
Scan type : Progressive
Bits/(Pixel*Frame) : 0.073
Stream size : 1.38 GiB (85%)
Writing library : x264 core 148 r2715 7e75228
Encoding settings : cabac=1 / ref=3 / deblock=1:0:0 / analyse=0x1:0x111 / me=umh / subme=10 / psy=1 / psy_rd=1.00:0.00 / mixed_ref=1 / me_range=24 / chroma_me=1 / trellis=2 / 8x8dct=0 / cqm=0 / deadzone=21,11 / fast_pskip=1 / chroma_qp_offset=-2 / threads=8 / lookahead_threads=1 / sliced_threads=0 / nr=0 / decimate=1 / interlaced=0 / bluray_compat=0 / stitchable=1 / constrained_intra=0 / bframes=2 / b_pyramid=0 / b_adapt=2 / b_bias=0 / direct=3 / weightb=1 / open_gop=0 / weightp=2 / keyint=48 / keyint_min=25 / scenecut=0 / intra_refresh=0 / rc_lookahead=48 / rc=2pass / mbtree=1 / bitrate=3650 / ratetol=1.0 / qcomp=0.50 / qpmin=6 / qpmax=51 / qpstep=4 / cplxblur=20.0 / qblur=0.5 / vbv_maxrate=5475 / vbv_bufsize=7300 / nal_hrd=vbr / filler=0 / ip_ratio=1.40 / aq=1:1.00
Default : Yes
Forced : No

Audio
ID : 2
Format : E-AC-3
Format/Info : Enhanced AC-3
Commercial name : Dolby Digital Plus
Codec ID : A_EAC3
Duration : 54 min 53 s
Bit rate mode : Constant
Bit rate : 640 kb/s
Channel(s) : 6 channels
Channel layout : L R C LFE Ls Rs
Sampling rate : 48.0 kHz
Frame rate : 31.250 FPS (1536 SPF)
Compression mode : Lossy
Stream size : 251 MiB (15%)
Language : English
Service kind : Complete Main
Default : Yes
Forced : No

Text #1
ID : 3
Format : UTF-8
Codec ID : S_TEXT/UTF8
Codec ID/Info : UTF-8 Plain Text
Duration : 51 min 55 s
Bit rate : 41 b/s
Count of elements : 493
Stream size : 15.8 KiB (0%)
Language : English
Default : No
Forced : No

Text #2
ID : 4
Format : UTF-8
Codec ID : S_TEXT/UTF8
Codec ID/Info : UTF-8 Plain Text
Duration : 51 min 55 s
Bit rate : 48 b/s
Count of elements : 547
Stream size : 18.3 KiB (0%)
Title : SDH
Language : English
Default : No
Forced : No

Text #3
ID : 5
Format : UTF-8
Codec ID : S_TEXT/UTF8
Codec ID/Info : UTF-8 Plain Text
Duration : 51 min 55 s
Bit rate : 67 b/s
Count of elements : 485
Stream size : 25.5 KiB (0%)
Language : Arabic
Default : No
Forced : No

Text #4
ID : 6
Format : UTF-8
Codec ID : S_TEXT/UTF8
Codec ID/Info : UTF-8 Plain Text
Duration : 51 min 55 s
Bit rate : 37 b/s
Count of elements : 480
Stream size : 14.4 KiB (0%)
Language : Danish
Default : No
Forced : No

Text #5
ID : 7
Format : UTF-8
Codec ID : S_TEXT/UTF8
Codec ID/Info : UTF-8 Plain Text
Duration : 51 min 55 s
Bit rate : 40 b/s
Count of elements : 479
Stream size : 15.2 KiB (0%)
Language : German
Default : No
Forced : No

Text #6
ID : 8
Format : UTF-8
Codec ID : S_TEXT/UTF8
Codec ID/Info : UTF-8 Plain Text
Duration : 51 min 55 s
Bit rate : 65 b/s
Count of elements : 482
Stream size : 24.8 KiB (0%)
Language : Greek
Default : No
Forced : No

Text #7
ID : 9
Format : UTF-8
Codec ID : S_TEXT/UTF8
Codec ID/Info : UTF-8 Plain Text
Duration : 51 min 55 s
Bit rate : 39 b/s
Count of elements : 480
Stream size : 14.8 KiB (0%)
Title : European
Language : Spanish
Default : No
Forced : No

Text #8
ID : 10
Format : UTF-8
Codec ID : S_TEXT/UTF8
Codec ID/Info : UTF-8 Plain Text
Duration : 51 min 55 s
Bit rate : 39 b/s
Count of elements : 481
Stream size : 15.0 KiB (0%)
Language : Spanish
Default : No
Forced : No

Text #9
ID : 11
Format : UTF-8
Codec ID : S_TEXT/UTF8
Codec ID/Info : UTF-8 Plain Text
Duration : 51 min 55 s
Bit rate : 35 b/s
Count of elements : 473
Stream size : 13.5 KiB (0%)
Language : Finnish
Default : No
Forced : No

Text #10
ID : 12
Format : UTF-8
Codec ID : S_TEXT/UTF8
Codec ID/Info : UTF-8 Plain Text
Duration : 51 min 55 s
Bit rate : 37 b/s
Count of elements : 480
Stream size : 14.4 KiB (0%)
Language : French
Default : No
Forced : No

Text #11
ID : 13
Format : UTF-8
Codec ID : S_TEXT/UTF8
Codec ID/Info : UTF-8 Plain Text
Duration : 51 min 55 s
Bit rate : 59 b/s
Count of elements : 485
Stream size : 22.7 KiB (0%)
Language : Hebrew
Default : No
Forced : No

Text #12
ID : 14
Format : UTF-8
Codec ID : S_TEXT/UTF8
Codec ID/Info : UTF-8 Plain Text
Duration : 51 min 55 s
Bit rate : 38 b/s
Count of elements : 480
Stream size : 14.5 KiB (0%)
Language : Indonesian
Default : No
Forced : No

Text #13
ID : 15
Format : UTF-8
Codec ID : S_TEXT/UTF8
Codec ID/Info : UTF-8 Plain Text
Duration : 51 min 55 s
Bit rate : 38 b/s
Count of elements : 480
Stream size : 14.6 KiB (0%)
Language : Italian
Default : No
Forced : No

Text #14
ID : 16
Format : UTF-8
Codec ID : S_TEXT/UTF8
Codec ID/Info : UTF-8 Plain Text
Duration : 51 min 55 s
Bit rate : 41 b/s
Count of elements : 536
Stream size : 16.0 KiB (0%)
Language : Japanese
Default : No
Forced : No

Text #15
ID : 17
Format : UTF-8
Codec ID : S_TEXT/UTF8
Codec ID/Info : UTF-8 Plain Text
Duration : 51 min 55 s
Bit rate : 51 b/s
Count of elements : 485
Stream size : 19.6 KiB (0%)
Language : Korean
Default : No
Forced : No

Text #16
ID : 18
Format : UTF-8
Codec ID : S_TEXT/UTF8
Codec ID/Info : UTF-8 Plain Text
Duration : 51 min 55 s
Bit rate : 37 b/s
Count of elements : 481
Stream size : 14.3 KiB (0%)
Language : Norwegian Bokmal
Default : No
Forced : No

Text #17
ID : 19
Format : UTF-8
Codec ID : S_TEXT/UTF8
Codec ID/Info : UTF-8 Plain Text
Duration : 51 min 29 s
Bit rate : 35 b/s
Count of elements : 454
Stream size : 13.5 KiB (0%)
Language : Dutch
Default : No
Forced : No

Text #18
ID : 20
Format : UTF-8
Codec ID : S_TEXT/UTF8
Codec ID/Info : UTF-8 Plain Text
Duration : 51 min 55 s
Bit rate : 37 b/s
Count of elements : 476
Stream size : 14.2 KiB (0%)
Language : Polish
Default : No
Forced : No

Text #19
ID : 21
Format : UTF-8
Codec ID : S_TEXT/UTF8
Codec ID/Info : UTF-8 Plain Text
Duration : 51 min 55 s
Bit rate : 41 b/s
Count of elements : 479
Stream size : 15.7 KiB (0%)
Language : Portuguese
Default : No
Forced : No

Text #20
ID : 22
Format : UTF-8
Codec ID : S_TEXT/UTF8
Codec ID/Info : UTF-8 Plain Text
Duration : 51 min 55 s
Bit rate : 38 b/s
Count of elements : 481
Stream size : 14.5 KiB (0%)
Title : Brazilian
Language : Portuguese
Default : No
Forced : No

Text #21
ID : 23
Format : UTF-8
Codec ID : S_TEXT/UTF8
Codec ID/Info : UTF-8 Plain Text
Duration : 51 min 55 s
Bit rate : 47 b/s
Count of elements : 480
Stream size : 17.9 KiB (0%)
Language : Romanian
Default : No
Forced : No

Text #22
ID : 24
Format : UTF-8
Codec ID : S_TEXT/UTF8
Codec ID/Info : UTF-8 Plain Text
Duration : 51 min 55 s
Bit rate : 62 b/s
Count of elements : 484
Stream size : 23.9 KiB (0%)
Language : Russian
Default : No
Forced : No

Text #23
ID : 25
Format : UTF-8
Codec ID : S_TEXT/UTF8
Codec ID/Info : UTF-8 Plain Text
Duration : 51 min 55 s
Bit rate : 38 b/s
Count of elements : 477
Stream size : 14.7 KiB (0%)
Language : Swedish
Default : No
Forced : No

Text #24
ID : 26
Format : UTF-8
Codec ID : S_TEXT/UTF8
Codec ID/Info : UTF-8 Plain Text
Duration : 51 min 55 s
Bit rate : 106 b/s
Count of elements : 485
Stream size : 40.5 KiB (0%)
Language : Thai
Default : No
Forced : No

Text #25
ID : 27
Format : UTF-8
Codec ID : S_TEXT/UTF8
Codec ID/Info : UTF-8 Plain Text
Duration : 51 min 55 s
Bit rate : 39 b/s
Count of elements : 480
Stream size : 15.2 KiB (0%)
Language : Turkish
Default : No
Forced : No

Text #26
ID : 28
Format : UTF-8
Codec ID : S_TEXT/UTF8
Codec ID/Info : UTF-8 Plain Text
Duration : 51 min 55 s
Bit rate : 58 b/s
Count of elements : 482
Stream size : 22.4 KiB (0%)
Language : Vietnamese
Default : No
Forced : No

Text #27
ID : 29
Format : UTF-8
Codec ID : S_TEXT/UTF8
Codec ID/Info : UTF-8 Plain Text
Duration : 51 min 55 s
Bit rate : 45 b/s
Count of elements : 485
Stream size : 17.2 KiB (0%)
Title : Simplified
Language : Chinese
Default : No
Forced : No

Text #28
ID : 30
Format : UTF-8
Codec ID : S_TEXT/UTF8
Codec ID/Info : UTF-8 Plain Text
Duration : 51 min 55 s
Bit rate : 43 b/s
Count of elements : 484
Stream size : 16.6 KiB (0%)
Title : Traditional
Language : Chinese
Default : No
Forced : No



2 个附件 售价 大小 下载 时间

Titans.2018.S01.720p.NF.WEBRip.DDP5.1.x264-NTG[btbtt.me].torrent 0 金币 71.94K 1652 次 2月前

Titans.2018.S01.1080p.NF.WEBRip.DDP5.1.x264-NTG[btbtt.me].torrent 0 金币 72.31K 2653 次 2月前

#1楼
发帖时间:2019-01-11 18:04:29   |   回复数:2
liyouchai
超凡入圣№
谢谢楼主分享资源
2月前 #2楼
911degrees
隐世仙人♂
非常感谢,谢谢分享
2月前 #3楼
游客组