呆呆狐狸
隐世仙人♂

[2019] [英国] [喜剧] [打包] [BT下载][性爱自修室/性事学堂/Sex Education 第一季][全08集打包][英语中字][MKV][720P/1080P][片源]

-->

注:Netflix版片源 内含官方中字  更多字幕详见下面参数列表

◎译  名 性爱自修室 / 性事学堂 / 性爱自修室(台) / 操场性教育

◎片  名 Sex Education

◎年  代 2019

◎产  地 英国 / 美国

◎类  别 剧情 / 喜剧

◎语  言 英语

◎上映日期 2019-01-11(美国)

◎IMDb链接 http://www.imdb.com/title/tt7767422

◎豆瓣评分 0/10 from 0 users

◎豆瓣链接 https://movie.douban.com/subject/27594217/

◎集  数 8

◎导  演 本·泰勒 Ben Taylor / Kate Herron

◎编  剧 Bisha K. Ali / 索菲·古德哈特 Sophie Goodhart / Laura Hunter / Laura Neal / Laurie Nunn / 弗雷迪·赛伯 Freddy Syborn

◎主  演 Emma Mackey

      吉莲·安德森 Gillian Anderson

      阿萨·巴特菲尔德 Asa Butterfield

      Chaneil Kular

      阿利斯泰·皮垂 Alistair Petrie

      Connor Swindells

      Cerys Watkins

      Kedar Williams-Stirling

      Aimee Lou Wood

      Mimi Keene

      Tanya Reynolds

      Patricia Allison

      Simone Ashley

      Chris Jenks

      Max Boast

      Kadeem Ramsay

      Tish Kumar

      Daniel Adegboyega

      爱德华·布卢梅尔 Edward Bluemel

      费米·依鲁福祖 Femi Elufowoju Jr.

      莉莉·纽马克 Lily Newmark

      Rakhee Thakrar

      麦莉·托马斯 Milly Thomas




◎简  介  


  欧帝斯固然缺乏性经验,他的母亲可是一名性治疗师。他决定将母亲的衣钵发扬光大,於是在就读的摩尔戴高中设立性爱治疗谘询服务,造福无可救药的同学。他们水乳交融,其乐无穷,一起渡过人生最灿烂的时光。


Video
ID : 1
Format : AVC
Format/Info : Advanced Video Codec
Format profile : [email protected]
Format settings : CABAC / 3 Ref Frames
Format settings, CABAC : Yes
Format settings, ReFrames : 3 frames
Codec ID : V_MPEG4/ISO/AVC
Duration : 52 min 6 s
Bit rate mode : Variable
Bit rate : 5 620 kb/s
Maximum bit rate : 8 430 kb/s
Width : 1 920 pixels
Height : 1 080 pixels
Display aspect ratio : 16:9
Frame rate mode : Constant
Frame rate : 25.000 FPS
Color space : YUV
Chroma subsampling : 4:2:0
Bit depth : 8 bits
Scan type : Progressive
Bits/(Pixel*Frame) : 0.108
Stream size : 2.02 GiB (90%)
Writing library : x264 core 148 r2715 7e75228
Encoding settings : cabac=1 / ref=3 / deblock=1:0:0 / analyse=0x1:0x111 / me=umh / subme=10 / psy=1 / psy_rd=1.00:0.00 / mixed_ref=1 / me_range=24 / chroma_me=1 / trellis=2 / 8x8dct=0 / cqm=0 / deadzone=21,11 / fast_pskip=1 / chroma_qp_offset=-2 / threads=8 / lookahead_threads=1 / sliced_threads=0 / nr=0 / decimate=1 / interlaced=0 / bluray_compat=0 / stitchable=1 / constrained_intra=0 / bframes=2 / b_pyramid=0 / b_adapt=2 / b_bias=0 / direct=3 / weightb=1 / open_gop=0 / weightp=2 / keyint=50 / keyint_min=26 / scenecut=0 / intra_refresh=0 / rc_lookahead=50 / rc=2pass / mbtree=1 / bitrate=5620 / ratetol=1.0 / qcomp=0.50 / qpmin=6 / qpmax=51 / qpstep=4 / cplxblur=20.0 / qblur=0.5 / vbv_maxrate=8430 / vbv_bufsize=11240 / nal_hrd=vbr / filler=0 / ip_ratio=1.40 / aq=1:1.00
Default : Yes
Forced : No

Audio
ID : 2
Format : E-AC-3
Format/Info : Enhanced AC-3
Commercial name : Dolby Digital Plus
Codec ID : A_EAC3
Duration : 52 min 6 s
Bit rate mode : Constant
Bit rate : 640 kb/s
Channel(s) : 6 channels
Channel layout : L R C LFE Ls Rs
Sampling rate : 48.0 kHz
Frame rate : 31.250 FPS (1536 SPF)
Compression mode : Lossy
Stream size : 239 MiB (10%)
Title : English
Language : English
Service kind : Complete Main
Default : Yes
Forced : No

Text #1
ID : 3
Format : UTF-8
Codec ID : S_TEXT/UTF8
Codec ID/Info : UTF-8 Plain Text
Duration : 51 min 25 s
Bit rate : 78 b/s
Count of elements : 914
Stream size : 29.6 KiB (0%)
Title : English [SDH]
Language : English
Default : No
Forced : No

Text #2
ID : 4
Format : UTF-8
Codec ID : S_TEXT/UTF8
Codec ID/Info : UTF-8 Plain Text
Duration : 50 min 54 s
Bit rate : 57 b/s
Count of elements : 733
Stream size : 21.6 KiB (0%)
Title : Castilian
Language : Spanish
Default : No
Forced : No

Text #3
ID : 5
Format : UTF-8
Codec ID : S_TEXT/UTF8
Codec ID/Info : UTF-8 Plain Text
Duration : 50 min 54 s
Bit rate : 52 b/s
Count of elements : 744
Stream size : 19.5 KiB (0%)
Title : Spanish
Language : Spanish
Default : No
Forced : No

Text #4
ID : 6
Format : UTF-8
Codec ID : S_TEXT/UTF8
Codec ID/Info : UTF-8 Plain Text
Duration : 49 min 50 s
Bit rate : 58 b/s
Count of elements : 740
Stream size : 21.4 KiB (0%)
Title : French
Language : French
Default : No
Forced : No

Text #5
ID : 7
Format : UTF-8
Codec ID : S_TEXT/UTF8
Codec ID/Info : UTF-8 Plain Text
Duration : 50 min 53 s
Bit rate : 57 b/s
Count of elements : 690
Stream size : 21.3 KiB (0%)
Title : German
Language : German
Default : No
Forced : No

Text #6
ID : 8
Format : UTF-8
Codec ID : S_TEXT/UTF8
Codec ID/Info : UTF-8 Plain Text
Duration : 50 min 54 s
Bit rate : 56 b/s
Count of elements : 703
Stream size : 21.0 KiB (0%)
Title : Italian
Language : Italian
Default : No
Forced : No

Text #7
ID : 9
Format : UTF-8
Codec ID : S_TEXT/UTF8
Codec ID/Info : UTF-8 Plain Text
Duration : 50 min 57 s
Bit rate : 56 b/s
Count of elements : 708
Stream size : 21.0 KiB (0%)
Title : Portuguese
Language : Portuguese
Default : No
Forced : No

Text #8
ID : 10
Format : UTF-8
Codec ID : S_TEXT/UTF8
Codec ID/Info : UTF-8 Plain Text
Duration : 49 min 50 s
Bit rate : 56 b/s
Count of elements : 698
Stream size : 20.7 KiB (0%)
Title : Brazilian Portuguese
Language : Portuguese
Default : No
Forced : No

Text #9
ID : 11
Format : UTF-8
Codec ID : S_TEXT/UTF8
Codec ID/Info : UTF-8 Plain Text
Duration : 50 min 54 s
Bit rate : 49 b/s
Count of elements : 714
Stream size : 18.4 KiB (0%)
Title : Polish
Language : Polish
Default : No
Forced : No

Text #10
ID : 12
Format : UTF-8
Codec ID : S_TEXT/UTF8
Codec ID/Info : UTF-8 Plain Text
Duration : 49 min 50 s
Bit rate : 58 b/s
Count of elements : 747
Stream size : 21.4 KiB (0%)
Title : Turkish
Language : Turkish
Default : No
Forced : No

Text #11
ID : 13
Format : UTF-8
Codec ID : S_TEXT/UTF8
Codec ID/Info : UTF-8 Plain Text
Duration : 50 min 54 s
Bit rate : 54 b/s
Count of elements : 587
Stream size : 20.4 KiB (0%)
Title : Swedish
Language : Swedish
Default : No
Forced : No

Text #12
ID : 14
Format : UTF-8
Codec ID : S_TEXT/UTF8
Codec ID/Info : UTF-8 Plain Text
Duration : 50 min 54 s
Bit rate : 51 b/s
Count of elements : 724
Stream size : 19.3 KiB (0%)
Title : Danish
Language : Danish
Default : No
Forced : No

Text #13
ID : 15
Format : UTF-8
Codec ID : S_TEXT/UTF8
Codec ID/Info : UTF-8 Plain Text
Duration : 49 min 50 s
Bit rate : 51 b/s
Count of elements : 725
Stream size : 18.7 KiB (0%)
Title : Finnish
Language : Finnish
Default : No
Forced : No

Text #14
ID : 16
Format : UTF-8
Codec ID : S_TEXT/UTF8
Codec ID/Info : UTF-8 Plain Text
Duration : 50 min 54 s
Bit rate : 54 b/s
Count of elements : 707
Stream size : 20.4 KiB (0%)
Title : Dutch
Language : Dutch
Default : No
Forced : No

Text #15
ID : 17
Format : UTF-8
Codec ID : S_TEXT/UTF8
Codec ID/Info : UTF-8 Plain Text
Duration : 49 min 50 s
Bit rate : 48 b/s
Count of elements : 744
Stream size : 17.5 KiB (0%)
Title : Norwegian
Language : Norwegian
Default : No
Forced : No

Text #16
ID : 18
Format : UTF-8
Codec ID : S_TEXT/UTF8
Codec ID/Info : UTF-8 Plain Text
Duration : 49 min 50 s
Bit rate : 86 b/s
Count of elements : 740
Stream size : 31.5 KiB (0%)
Title : Russian
Language : Russian
Default : No
Forced : No

Text #17
ID : 19
Format : UTF-8
Codec ID : S_TEXT/UTF8
Codec ID/Info : UTF-8 Plain Text
Duration : 50 min 54 s
Bit rate : 91 b/s
Count of elements : 725
Stream size : 34.2 KiB (0%)
Title : Greek
Language : Greek
Default : No
Forced : No

Text #18
ID : 20
Format : UTF-8
Codec ID : S_TEXT/UTF8
Codec ID/Info : UTF-8 Plain Text
Duration : 50 min 53 s
Bit rate : 84 b/s
Count of elements : 724
Stream size : 31.5 KiB (0%)
Title : Hebrew
Language : Hebrew
Default : No
Forced : No

Text #19
ID : 21
Format : UTF-8
Codec ID : S_TEXT/UTF8
Codec ID/Info : UTF-8 Plain Text
Duration : 49 min 50 s
Bit rate : 104 b/s
Count of elements : 748
Stream size : 38.1 KiB (0%)
Title : Arabic
Language : Arabic
Default : No
Forced : No

Text #20
ID : 22
Format : UTF-8
Codec ID : S_TEXT/UTF8
Codec ID/Info : UTF-8 Plain Text
Duration : 50 min 53 s
Bit rate : 67 b/s
Count of elements : 682
Stream size : 25.2 KiB (0%)
Title : Romanian
Language : Romanian
Default : No
Forced : No

Text #21
ID : 23
Format : UTF-8
Codec ID : S_TEXT/UTF8
Codec ID/Info : UTF-8 Plain Text
Duration : 49 min 50 s
Bit rate : 53 b/s
Count of elements : 692
Stream size : 19.7 KiB (0%)
Title : Indonesian
Language : Indonesian
Default : No
Forced : No

Text #22
ID : 24
Format : UTF-8
Codec ID : S_TEXT/UTF8
Codec ID/Info : UTF-8 Plain Text
Duration : 49 min 50 s
Bit rate : 80 b/s
Count of elements : 745
Stream size : 29.2 KiB (0%)
Title : Vietnamese
Language : Vietnamese
Default : No
Forced : No

Text #23
ID : 25
Format : UTF-8
Codec ID : S_TEXT/UTF8
Codec ID/Info : UTF-8 Plain Text
Duration : 49 min 40 s
Bit rate : 148 b/s
Count of elements : 745
Stream size : 54.1 KiB (0%)
Title : Thai
Language : Thai
Default : No
Forced : No

Text #24
ID : 26
Format : UTF-8
Codec ID : S_TEXT/UTF8
Codec ID/Info : UTF-8 Plain Text
Duration : 50 min 54 s
Bit rate : 70 b/s
Count of elements : 747
Stream size : 26.5 KiB (0%)
Title : Korean
Language : Korean
Default : No
Forced : No

Text #25
ID : 27
Format : UTF-8
Codec ID : S_TEXT/UTF8
Codec ID/Info : UTF-8 Plain Text
Duration : 49 min 40 s
Bit rate : 65 b/s
Count of elements : 755
Stream size : 24.0 KiB (0%)
Title : Chinese (Simplified)
Language : Chinese
Default : No
Forced : No

Text #26
ID : 28
Format : UTF-8
Codec ID : S_TEXT/UTF8
Codec ID/Info : UTF-8 Plain Text
Duration : 49 min 50 s
Bit rate : 62 b/s
Count of elements : 751
Stream size : 22.8 KiB (0%)
Title : Chinese (Traditional)
Language : Chinese
Default : No
Forced : No

Text #27
ID : 29
Format : UTF-8
Codec ID : S_TEXT/UTF8
Codec ID/Info : UTF-8 Plain Text
Duration : 50 min 54 s
Bit rate : 62 b/s
Count of elements : 800
Stream size : 23.2 KiB (0%)
Title : Japanese
Language : Japanese
Default : No
Forced : No



2 个附件 售价 大小 下载 时间

Sex.Education.S01.720p.NF.WEBRip.DDP5.1.x264-MZABI[btbtt.me].torrent 0 金币 88.55K 30356 次 11月前

Sex.Education.S01.1080p.NF.WEBRip.DDP5.1.x264-MZABI[btbtt.me].torrent 0 金币 72.29K 13816 次 11月前

Sex.Education.S01.1080p.NF.WEB-DL.DDP5.1.x264-MZABI.人人精校.rar 0 金币 1.69M 1498 次 5月前

#1楼
发帖时间:2019-01-11 17:55:35   |   回复数:3
911degrees
隐世仙人♂
非常感谢,谢谢分享
11月前 #2楼
Charon
武林高手
感谢分享
10月前 #3楼
david19710102
超级版主
0710
5月前 #4楼
游客组