呆呆狐狸
超级版主

[2016] [英国] [纪录] [打包] [BT下载][野性法国/Wild France with Ray Mears][全06集打包][英语英字][MKV][1080P][片源]

-->

◎译  名 野性法国 / Ray Mears' Wild France

◎片  名 Wild France with Ray Mears

◎年  代 2016

◎产  地 英国

◎类  别 纪录片

◎语  言 英语

◎上映日期 2016-07-11(英国)

◎IMDb评分 7.3/10 from 16 users

◎IMDb链接 http://www.imdb.com/title/tt6897014

◎BT之家整理 http://www.btbtt.us/

◎集  数 6

◎片  长 22分钟

◎主  演 雷·米尔斯 Ray Mears



◎标  签 纪录片 | 法国 | 英国 | 自然 | 央视九套 | 2016 | 自然纪录片 | 有源待看


◎简  介  


  主持人Ray Mears将探索法国六处自然景观独特的地理、气候和动植物分布。


Video
ID : 1
Format : AVC
Format/Info : Advanced Video Codec
Format profile : [email protected]
Format settings : CABAC / 3 Ref Frames
Format settings, CABAC : Yes
Format settings, ReFrames : 3 frames
Codec ID : V_MPEG4/ISO/AVC
Duration : 23 min 34 s
Bit rate mode : Variable
Bit rate : 7 500 kb/s
Maximum bit rate : 11.2 Mb/s
Width : 1 920 pixels
Height : 1 080 pixels
Display aspect ratio : 16:9
Frame rate mode : Constant
Frame rate : 25.000 FPS
Color space : YUV
Chroma subsampling : 4:2:0
Bit depth : 8 bits
Scan type : Progressive
Bits/(Pixel*Frame) : 0.145
Stream size : 1.23 GiB (98%)
Writing library : x264 core 118
Encoding settings : cabac=1 / ref=3 / deblock=1:0:0 / analyse=0x1:0x111 / me=umh / subme=10 / psy=1 / psy_rd=1.00:0.00 / mixed_ref=1 / me_range=24 / chroma_me=1 / trellis=2 / 8x8dct=0 / cqm=0 / deadzone=21,11 / fast_pskip=1 / chroma_qp_offset=-2 / threads=6 / sliced_threads=0 / nr=0 / decimate=1 / interlaced=0 / bluray_compat=0 / constrained_intra=0 / bframes=2 / b_pyramid=0 / b_adapt=2 / b_bias=0 / direct=3 / weightb=1 / open_gop=0 / weightp=2 / keyint=50 / keyint_min=26 / scenecut=0 / intra_refresh=0 / rc_lookahead=0 / rc=2pass / mbtree=1 / bitrate=7500 / ratetol=1.0 / qcomp=0.50 / qpmin=6 / qpmax=51 / qpstep=4 / cplxblur=20.0 / qblur=0.5 / vbv_maxrate=11250 / vbv_bufsize=15000 / nal_hrd=vbr / ip_ratio=1.40 / aq=1:1.00
Default : Yes
Forced : No

Audio
ID : 2
Format : E-AC-3
Format/Info : Enhanced AC-3
Commercial name : Dolby Digital Plus
Codec ID : A_EAC3
Duration : 23 min 34 s
Bit rate mode : Constant
Bit rate : 128 kb/s
Channel(s) : 2 channels
Channel layout : L R
Sampling rate : 48.0 kHz
Frame rate : 31.250 FPS (1536 SPF)
Compression mode : Lossy
Stream size : 21.6 MiB (2%)
Language : English
Service kind : Complete Main
Default : Yes
Forced : No

Text
ID : 3
Format : UTF-8
Codec ID : S_TEXT/UTF8
Codec ID/Info : UTF-8 Plain Text
Duration : 22 min 52 s
Bit rate : 90 b/s
Count of elements : 353
Stream size : 15.2 KiB (0%)
Title : SDH
Language : English
Default : No
Forced : No




1 个附件 售价 大小 下载 时间

Wild.France.With.Ray.Mears.S01.1080p.NF.WEBRip.DDP2.0.x264-monkee[btbtt.me].torrent 0 金币 75.26K 1131 次 2月前

#1楼
发帖时间:2019-01-11 17:51:32   |   回复数:2
911degrees
隐世仙人♂
非常感谢,谢谢分享
2月前 #2楼
xxlgg1808
武林高手
感谢分享!!
2月前 #3楼
游客组