呆呆狐狸
超级版主

[2018] [美国] [剧情] [打包] [BT下载][黄石公园 Yellowstone 第一季][全09集打包][外挂中字][BD-MKV][720P/1080P][片源]

-->


◎译  名 黄石 第一季/黄石公园/黄石之争

◎片  名 Yellowstone Season 1

◎年  代 2018

◎产  地 美国

◎类  别 剧情/西部

◎语  言 英语

◎上映日期 2018-06-20(美国)

◎BT之家整理 http://www.btbtt.us/

◎集  数 10

◎片  长 60分钟

◎导  演 泰勒·谢里丹 Taylor Sheridan

◎主  演 凯文·科斯特纳 Kevin Costner

      凯尔西·周  Kelsey Chow

      韦斯·本特利 Wes Bentley

      吉尔·伯明翰 Gil Birmingham

      伊恩·鲍汉 Ian Bohen

      卢克·葛莱姆斯 Luke Grimes

      科尔·豪瑟 Cole Hauser

      凯利·蕾莉 Kelly Reilly

      丹宁 理查兹 Denim Richards

      戴夫·安纳布尔 Dave Annable

      吉尔·亨内斯 Jill Hennessy

      格瑞辰·摩尔 Gretchen Mol

      帕特里克·圣埃斯普利特 Patrick St. Esprit

      杰佛逊·豪尔 Jefferson Hall

      托卡拉·克利福德 Tokala Clifford

      丹尼·赫斯顿 Danny Huston

      温迪·莫尼兹 Wendy Moniz


◎简  介


  约翰·达顿是达顿家族的一家之长,坐拥着美国最大的牧场,与牧场毗邻的有美国首个国家公园、印第安人保留地以及土地开发商买下的地皮。在一次因牲畜误入印第安人保留地引起的争端中,不幸的意外伤亡事件发生,一场涉及多方的争端在蒙大拿州这片美丽的土地上拉开了序幕。


Video
ID : 1
Format : AVC
Format/Info : Advanced Video Codec
Format profile : [email protected]
Format settings : CABAC / 4 Ref Frames
Format settings, CABAC : Yes
Format settings, ReFrames : 4 frames
Codec ID : V_MPEG4/ISO/AVC
Duration : 1 h 32 min
Bit rate : 9 509 kb/s
Width : 1 920 pixels
Height : 960 pixels
Display aspect ratio : 2.000
Frame rate mode : Constant
Frame rate : 23.976 (24000/1001) FPS
Color space : YUV
Chroma subsampling : 4:2:0
Bit depth : 8 bits
Scan type : Progressive
Bits/(Pixel*Frame) : 0.215
Stream size : 6.14 GiB (94%)
Writing library : x264 core 157 r2935 545de2f
Encoding settings : cabac=1 / ref=4 / deblock=1:0:0 / analyse=0x3:0x133 / me=umh / subme=7 / psy=1 / psy_rd=1.00:0.00 / mixed_ref=1 / me_range=16 / chroma_me=1 / trellis=1 / 8x8dct=1 / cqm=0 / deadzone=21,11 / fast_pskip=0 / chroma_qp_offset=-2 / threads=30 / lookahead_threads=5 / sliced_threads=0 / nr=0 / decimate=1 / interlaced=0 / bluray_compat=0 / constrained_intra=0 / bframes=3 / b_pyramid=2 / b_adapt=1 / b_bias=0 / direct=1 / weightb=1 / open_gop=0 / weightp=2 / keyint=250 / keyint_min=23 / scenecut=40 / intra_refresh=0 / rc_lookahead=40 / rc=2pass / mbtree=1 / bitrate=9509 / ratetol=1.0 / qcomp=0.60 / qpmin=0 / qpmax=69 / qpstep=4 / cplxblur=20.0 / qblur=0.5 / ip_ratio=1.40 / aq=1:1.00
Language : English
Default : Yes
Forced : No

Audio
ID : 2
Format : AC-3
Format/Info : Audio Coding 3
Commercial name : Dolby Digital
Codec ID : A_AC3
Duration : 1 h 32 min
Bit rate mode : Constant
Bit rate : 640 kb/s
Channel(s) : 6 channels
Channel layout : L R C LFE Ls Rs
Sampling rate : 48.0 kHz
Frame rate : 31.250 FPS (1536 SPF)
Bit depth : 16 bits
Compression mode : Lossy
Stream size : 423 MiB (6%)
Language : English
Service kind : Complete Main
Default : Yes
Forced : No

Menu
00:00:00.000 : en:00:00:00.000
00:03:54.943 : en:00:03:54.943
00:16:24.567 : en:00:16:24.567
00:29:16.046 : en:00:29:16.046
00:37:45.722 : en:00:37:45.722
00:47:28.095 : en:00:47:28.095
01:00:21.743 : en:01:00:21.743
01:11:30.411 : en:01:11:30.411
01:22:09.633 : en:01:22:09.633
01:31:30.985 : en:01:31:30.985



3 个附件 售价 大小 下载 时间

Yellowstone.US.S01.720p.BluRay.x264-DEMAND[btbtt.me].torrent 0 金币 57.30K 1512 次 4月前

Yellowstone.US.S01.1080p.BluRay.x264-ROVERS[btbtt.me].torrent 0 金币 84.83K 2114 次 4月前

字幕Yellowstone.US.S01.720p 1080p.BluRay.x264-ROVERS.zip 0 金币 798.39K 1428 次 4月前

#1楼
发帖时间:2018-12-01 22:22:49   |   回复数:4
911degrees
隐世仙人♂
非常感谢,谢谢分享
4月前 #2楼
呆呆狐狸
超级版主
追加字幕
4月前 #3楼
kingkillerfgch
江湖小虾
感谢分享!
5天前 #4楼
chulps
一代宗师
ddd
5天前 #5楼
游客组