呆呆狐狸
隐世仙人♂

[2018] [意剧] [剧情] [打包] [BT下载][罗马宝贝 Baby 第一季][全06集打包][意大利语中字][MKV][1080P][片源]

-->

注:Netflix版片源 内含官方中字  更多字幕详见下面参数列表



译  名 罗马宝贝 第一季

◎片  名 Baby Season 1

◎年  代 2018

◎产  地 意大利

◎上映日期 2018-11-30(美国)

◎IMDb链接 http://www.imdb.com/title/tt7645192

◎BT之家整理 http://www.btbtt.us/

◎集  数 6

◎编  剧 Isabella Aguilar / Giacomo Durzi

◎主  演 Alice Pagani

      贝内黛塔·波尔卡罗利 Benedetta Porcaroli

      Ed Hendrik

      保罗·卡拉布雷西 Paolo Calabresi

      Federica Lucaferri

      朱塞佩·马吉奥 Giuseppe Maggio

      Riccardo Mandolini

      白兰度·帕奇托 Brando Pacitto

      克劳迪亚·潘多尔菲 Claudia Pandolfi

      马西莫·波吉欧 Massimo Poggio

      托马索·劳格诺 Tommaso Ragno

      加拉泰亚·兰齐 Galatea Ranzi

      Chabeli Sastre

      Mirko Trovato

      Lorenzo Zurzolo




◎简  介  


  Netflix推出的意大利剧集,讲述罗马青春少女不为人知的故事。以当时10个援交女孩的背景为启发改编,讲述女孩们如何对抗社会,并且不断的寻找自我,不管那些隐秘的爱,家庭的压力,还是那些私密的故事。男孩女孩颜值都很在线啊,讲得是青春的故事,谁的青春不迷茫呢


Video
ID : 1
Format : AVC
Format/Info : Advanced Video Codec
Format profile : [email protected]
Format settings : CABAC / 3 Ref Frames
Format settings, CABAC : Yes
Format settings, ReFrames : 3 frames
Codec ID : V_MPEG4/ISO/AVC
Duration : 45 min 30 s
Bit rate mode : Variable
Bit rate : 5 110 kb/s
Maximum bit rate : 7 665 kb/s
Width : 1 920 pixels
Height : 1 080 pixels
Display aspect ratio : 16:9
Frame rate mode : Constant
Frame rate : 25.000 FPS
Color space : YUV
Chroma subsampling : 4:2:0
Bit depth : 8 bits
Scan type : Progressive
Bits/(Pixel*Frame) : 0.099
Stream size : 1.56 GiB (88%)
Writing library : x264 core 148 r2715 7e75228
Encoding settings : cabac=1 / ref=3 / deblock=1:0:0 / analyse=0x1:0x111 / me=umh / subme=10 / psy=1 / psy_rd=1.00:0.00 / mixed_ref=1 / me_range=24 / chroma_me=1 / trellis=2 / 8x8dct=0 / cqm=0 / deadzone=21,11 / fast_pskip=1 / chroma_qp_offset=-2 / threads=8 / lookahead_threads=1 / sliced_threads=0 / nr=0 / decimate=1 / interlaced=0 / bluray_compat=0 / stitchable=1 / constrained_intra=0 / bframes=2 / b_pyramid=0 / b_adapt=2 / b_bias=0 / direct=3 / weightb=1 / open_gop=0 / weightp=2 / keyint=50 / keyint_min=26 / scenecut=0 / intra_refresh=0 / rc_lookahead=50 / rc=2pass / mbtree=1 / bitrate=5110 / ratetol=1.0 / qcomp=0.50 / qpmin=6 / qpmax=51 / qpstep=4 / cplxblur=20.0 / qblur=0.5 / vbv_maxrate=7665 / vbv_bufsize=10220 / nal_hrd=vbr / filler=0 / ip_ratio=1.40 / aq=1:1.00
Default : Yes
Forced : No

Audio
ID : 2
Format : E-AC-3
Format/Info : Enhanced AC-3
Commercial name : Dolby Digital Plus
Codec ID : A_EAC3
Duration : 45 min 30 s
Bit rate mode : Constant
Bit rate : 640 kb/s
Channel(s) : 6 channels
Channel layout : L R C LFE Ls Rs
Sampling rate : 48.0 kHz
Frame rate : 31.250 FPS (1536 SPF)
Compression mode : Lossy
Stream size : 208 MiB (12%)
Title : Italian
Language : Italian
Service kind : Complete Main
Default : No
Forced : No

Text #1
ID : 3
Format : UTF-8
Codec ID : S_TEXT/UTF8
Codec ID/Info : UTF-8 Plain Text
Duration : 42 min 44 s
Bit rate : 51 b/s
Count of elements : 508
Stream size : 16.2 KiB (0%)
Title : English [Full]
Language : English
Default : No
Forced : No

Text #2
ID : 4
Format : UTF-8
Codec ID : S_TEXT/UTF8
Codec ID/Info : UTF-8 Plain Text
Duration : 42 min 48 s
Bit rate : 61 b/s
Count of elements : 598
Stream size : 19.3 KiB (0%)
Title : English [SDH]
Language : English
Default : No
Forced : No

Text #3
ID : 5
Format : UTF-8
Codec ID : S_TEXT/UTF8
Codec ID/Info : UTF-8 Plain Text
Duration : 44 min 53 s
Bit rate : 46 b/s
Count of elements : 511
Stream size : 15.2 KiB (0%)
Title : Castilian [Full]
Language : Spanish
Default : No
Forced : No

Text #4
ID : 6
Format : UTF-8
Codec ID : S_TEXT/UTF8
Codec ID/Info : UTF-8 Plain Text
Duration : 44 min 53 s
Bit rate : 47 b/s
Count of elements : 511
Stream size : 15.6 KiB (0%)
Title : Spanish [Full]
Language : Spanish
Default : No
Forced : No

Text #5
ID : 7
Format : UTF-8
Codec ID : S_TEXT/UTF8
Codec ID/Info : UTF-8 Plain Text
Duration : 44 min 53 s
Bit rate : 46 b/s
Count of elements : 489
Stream size : 15.3 KiB (0%)
Title : French [Full]
Language : French
Default : No
Forced : No

Text #6
ID : 8
Format : UTF-8
Codec ID : S_TEXT/UTF8
Codec ID/Info : UTF-8 Plain Text
Duration : 44 min 53 s
Bit rate : 42 b/s
Count of elements : 510
Stream size : 13.8 KiB (0%)
Title : German [Full]
Language : German
Default : No
Forced : No

Text #7
ID : 9
Format : UTF-8
Codec ID : S_TEXT/UTF8
Codec ID/Info : UTF-8 Plain Text
Duration : 34 min 17 s
Bit rate : 3 b/s
Count of elements : 22
Stream size : 875 Bytes (0%)
Title : Italian [Forced]
Language : Italian
Default : No
Forced : Yes

Text #8
ID : 10
Format : UTF-8
Codec ID : S_TEXT/UTF8
Codec ID/Info : UTF-8 Plain Text
Duration : 42 min 48 s
Bit rate : 59 b/s
Count of elements : 573
Stream size : 18.7 KiB (0%)
Title : Italian [SDH]
Language : Italian
Default : No
Forced : No

Text #9
ID : 11
Format : UTF-8
Codec ID : S_TEXT/UTF8
Codec ID/Info : UTF-8 Plain Text
Duration : 44 min 53 s
Bit rate : 45 b/s
Count of elements : 510
Stream size : 15.0 KiB (0%)
Title : Portuguese [Full]
Language : Portuguese
Default : No
Forced : No

Text #10
ID : 12
Format : UTF-8
Codec ID : S_TEXT/UTF8
Codec ID/Info : UTF-8 Plain Text
Duration : 44 min 53 s
Bit rate : 45 b/s
Count of elements : 511
Stream size : 15.0 KiB (0%)
Title : Brazilian Portuguese [Full]
Language : Portuguese
Default : No
Forced : No

Text #11
ID : 13
Format : UTF-8
Codec ID : S_TEXT/UTF8
Codec ID/Info : UTF-8 Plain Text
Duration : 44 min 53 s
Bit rate : 45 b/s
Count of elements : 510
Stream size : 14.8 KiB (0%)
Title : Polish [Full]
Language : Polish
Default : No
Forced : No

Text #12
ID : 14
Format : UTF-8
Codec ID : S_TEXT/UTF8
Codec ID/Info : UTF-8 Plain Text
Duration : 44 min 53 s
Bit rate : 49 b/s
Count of elements : 511
Stream size : 16.1 KiB (0%)
Title : Turkish [Full]
Language : Turkish
Default : No
Forced : No

Text #13
ID : 15
Format : UTF-8
Codec ID : S_TEXT/UTF8
Codec ID/Info : UTF-8 Plain Text
Duration : 44 min 53 s
Bit rate : 43 b/s
Count of elements : 492
Stream size : 14.4 KiB (0%)
Title : Swedish [Full]
Language : Swedish
Default : No
Forced : No

Text #14
ID : 16
Format : UTF-8
Codec ID : S_TEXT/UTF8
Codec ID/Info : UTF-8 Plain Text
Duration : 44 min 53 s
Bit rate : 42 b/s
Count of elements : 510
Stream size : 14.1 KiB (0%)
Title : Danish [Full]
Language : Danish
Default : No
Forced : No

Text #15
ID : 17
Format : UTF-8
Codec ID : S_TEXT/UTF8
Codec ID/Info : UTF-8 Plain Text
Duration : 44 min 53 s
Bit rate : 48 b/s
Count of elements : 460
Stream size : 16.1 KiB (0%)
Title : Finnish [Full]
Language : Finnish
Default : No
Forced : No

Text #16
ID : 18
Format : UTF-8
Codec ID : S_TEXT/UTF8
Codec ID/Info : UTF-8 Plain Text
Duration : 44 min 53 s
Bit rate : 43 b/s
Count of elements : 488
Stream size : 14.4 KiB (0%)
Title : Dutch [Full]
Language : Dutch
Default : No
Forced : No

Text #17
ID : 19
Format : UTF-8
Codec ID : S_TEXT/UTF8
Codec ID/Info : UTF-8 Plain Text
Duration : 44 min 53 s
Bit rate : 43 b/s
Count of elements : 403
Stream size : 14.2 KiB (0%)
Title : Norwegian [Full]
Language : Norwegian
Default : No
Forced : No

Text #18
ID : 20
Format : UTF-8
Codec ID : S_TEXT/UTF8
Codec ID/Info : UTF-8 Plain Text
Duration : 44 min 53 s
Bit rate : 88 b/s
Count of elements : 517
Stream size : 29.1 KiB (0%)
Title : Russian [Full]
Language : Russian
Default : No
Forced : No

Text #19
ID : 21
Format : UTF-8
Codec ID : S_TEXT/UTF8
Codec ID/Info : UTF-8 Plain Text
Duration : 44 min 53 s
Bit rate : 78 b/s
Count of elements : 508
Stream size : 25.9 KiB (0%)
Title : Greek [Full]
Language : Greek
Default : No
Forced : No

Text #20
ID : 22
Format : UTF-8
Codec ID : S_TEXT/UTF8
Codec ID/Info : UTF-8 Plain Text
Duration : 42 min 44 s
Bit rate : 82 b/s
Count of elements : 509
Stream size : 25.9 KiB (0%)
Title : Hebrew [Full]
Language : Hebrew
Default : No
Forced : No

Text #21
ID : 23
Format : UTF-8
Codec ID : S_TEXT/UTF8
Codec ID/Info : UTF-8 Plain Text
Duration : 42 min 44 s
Bit rate : 86 b/s
Count of elements : 510
Stream size : 27.1 KiB (0%)
Title : Arabic [Full]
Language : Arabic
Default : No
Forced : No

Text #22
ID : 24
Format : UTF-8
Codec ID : S_TEXT/UTF8
Codec ID/Info : UTF-8 Plain Text
Duration : 42 min 44 s
Bit rate : 54 b/s
Count of elements : 511
Stream size : 17.0 KiB (0%)
Title : Romanian [Full]
Language : Romanian
Default : No
Forced : No

Text #23
ID : 25
Format : UTF-8
Codec ID : S_TEXT/UTF8
Codec ID/Info : UTF-8 Plain Text
Duration : 44 min 53 s
Bit rate : 46 b/s
Count of elements : 511
Stream size : 15.4 KiB (0%)
Title : Indonesian [Full]
Language : Indonesian
Default : No
Forced : No

Text #24
ID : 26
Format : UTF-8
Codec ID : S_TEXT/UTF8
Codec ID/Info : UTF-8 Plain Text
Duration : 42 min 44 s
Bit rate : 72 b/s
Count of elements : 508
Stream size : 22.6 KiB (0%)
Title : Vietnamese [Full]
Language : Vietnamese
Default : No
Forced : No

Text #25
ID : 27
Format : UTF-8
Codec ID : S_TEXT/UTF8
Codec ID/Info : UTF-8 Plain Text
Duration : 42 min 44 s
Bit rate : 133 b/s
Count of elements : 510
Stream size : 41.8 KiB (0%)
Title : Thai [Full]
Language : Thai
Default : No
Forced : No

Text #26
ID : 28
Format : UTF-8
Codec ID : S_TEXT/UTF8
Codec ID/Info : UTF-8 Plain Text
Duration : 42 min 44 s
Bit rate : 69 b/s
Count of elements : 510
Stream size : 21.7 KiB (0%)
Title : Korean [Full]
Language : Korean
Default : No
Forced : No

Text #27
ID : 29
Format : UTF-8
Codec ID : S_TEXT/UTF8
Codec ID/Info : UTF-8 Plain Text
Duration : 42 min 44 s
Bit rate : 59 b/s
Count of elements : 510
Stream size : 18.8 KiB (0%)
Title : Chinese (Simplified) [Full]
Language : Chinese
Default : No
Forced : No

Text #28
ID : 30
Format : UTF-8
Codec ID : S_TEXT/UTF8
Codec ID/Info : UTF-8 Plain Text
Duration : 42 min 44 s
Bit rate : 56 b/s
Count of elements : 510
Stream size : 17.6 KiB (0%)
Title : Chinese (Traditional) [Full]
Language : Chinese
Default : No
Forced : No

Text #29
ID : 31
Format : UTF-8
Codec ID : S_TEXT/UTF8
Codec ID/Info : UTF-8 Plain Text
Duration : 42 min 44 s
Bit rate : 51 b/s
Count of elements : 564
Stream size : 16.1 KiB (0%)
Title : Japanese [Full]
Language : Japanese
Default : No
Forced : No



1 个附件 售价 大小 下载 时间

Baby.S01.ITALIAN.1080p.NF.WEBRip.DDP5.1.x264-MZABI[btbtt.me].torrent 0 金币 94.38K 4655 次 2018-11-30

#1楼
发帖时间:2018-11-30 19:11:48   |   回复数:1
911degrees
隐世仙人♂
非常感谢,谢谢分享
2018-11-30 #2楼
游客组