呆呆狐狸
隐世仙人♂

[合 集] [美国] [科幻] [打包] [BT下载][星际旅行:原初 Star Trek:TOS 第一至三季][全03季][英语中字][MKV][1080P][AMZN+中文字幕]

-->


◎译  名 星际旅行:原初 第一季 / 星空奇遇记(港):原初 第一季 / 星舰奇航记:原初 第一季 / 星舰迷航:原初 第一季 / 星际争霸战(台):初代 第一季 / 星际迷航:原初系列 第一季

◎片  名 Star Trek: The Original Series

◎年  代 1966

◎产  地 美国

◎类  别 科幻 / 冒险

◎语  言 英语

◎上映日期 1966-09-08(美国)

◎IMDb评分 8.3/10 from 63780 users

◎IMDb链接 http://www.imdb.com/title/tt0060028

◎豆瓣评分 9.4/10 from 1932 users

◎豆瓣链接 https://movie.douban.com/subject/2353922/

◎BT之家整理 http://www.btbtt.me/

◎片  长 50 分钟(79 episodes)

◎导  演 马克·丹尼尔斯 Marc Daniels / 约瑟夫·佩夫尼 Joseph Pevney / 文森特·麦克伊维提 Vincent McEveety / 瑞弗·赛恩斯基 Ralph Senensky / 裘德·泰勒 Jud Taylor / 赫伯·沃勒斯坦 Herb Wallerstein / 罗伯特·巴特勒 Robert Butler / 马文·J·乔姆斯基 Marvin J. Chomsky / 约翰·梅瑞迪斯·卢卡斯 John Meredyth Lucas / 盖德·奥斯瓦尔德 Gerd Oswald / 詹姆斯·戈德斯 James Goldstone / 赫歇尔·多尔蒂 Herschel Daugherty / 大卫·亚力山大 David Alexander / 劳伦斯·多布金 Lawrence Dobkin / 哈维·哈特 Harvey Hart / 利奥·潘 Leo Penn / 约瑟夫·萨金特 Joseph Sargent / 罗伯特·斯帕尔 Robert Sparr / 罗伯特·吉斯特 Robert Gist / 唐·麦克杜格尔 Don McDougall / 约翰·纽兰 John Newland / 迈克尔·奥赫里奇 Michael O'Herlihy / 约翰·厄曼 John Erman / 詹姆斯·科马驰 James Komack / 安东尼·利德 Anton Leader / 吉恩·纳尔逊 Gene Nelson / 默里·戈尔登 Murray Golden / 赫伯特·肯威斯 Herbert Kenwith

◎编  剧 吉恩·罗登贝瑞 Gene Roddenberry / 乔治·克莱顿·约翰逊 George Clayton Johnson

◎主  演 伦纳德·尼莫伊 Leonard Nimoy

      威廉·夏特纳 William Shatner

      德福雷斯特·凯利 DeForest Kelley

      尼切尔·尼克斯 Nichelle Nichols

      詹姆斯·杜汉 James Doohan

      Eddie Paskey

      竹井乔治 George Takei

      沃尔特·凯尼格 Walter Koenig

      马杰尔·巴雷特 Majel Barrett




◎简  介  


  (Star Trek: The Original Series,1966年-1969年)

《原初系列》在1966年9月8日于美国全国广播公司(NBC)首播,吉恩•罗登贝瑞制作,威廉•薛特纳(William Shatner)、李奥纳德•尼摩伊(Leonard Nimoy)、以及德佛瑞斯特•凯利(DeForest Kelley)所主演。它是一个描述一艘隶属于星际联邦(the United Federation of Planets)的星舰进取号(Enterprise,又译为企业号/奋进号)上的航员以及他们“勇敢地航向前人所未至的领域”(To boldly go where no one has gone before)的冒险故事。在一开始它并不成功,收视率低而且广告收入也不理想。然而,当这个节目第二季隐约出现了停播的恶兆时,忠实影迷们展开了一场前所未有的争取运动,说服美国全国广播公司继续制作第三季。最後一集于1969年6月3日首播。该电视系列剧在日後各台重播中受到惊人的欢迎。

为了将这第一个系列与日後其他系列作一个区分,这个系列在西方被称为Star Trek: The Original Series(星际旅行:原初系列,在台湾使用《星际争霸战》这个名称﹐在七十年代的香港译为《星空奇遇记》),缩写为ST:TOS或TOS。

也就是最早的ST,为了和后来的剧集区别开国外Fans在其名称后加了The Original Series,所以简称TOS,一共三季,开创了历史的经典之作,电影版的1-6可以看作TOS的延续,电视剧版原班人马。


Video
ID : 1
Format : HEVC
Format/Info : High Efficiency Video Coding
Format profile : [email protected]@Main
Codec ID : V_MPEGH/ISO/HEVC
Duration : 50 min 40 s
Bit rate : 8 803 kb/s
Width : 1 920 pixels
Height : 1 080 pixels
Display aspect ratio : 16:9
Frame rate mode : Constant
Frame rate : 23.976 (24000/1001) FPS
Standard : NTSC
Color space : YUV
Chroma subsampling : 4:2:0
Bit depth : 8 bits
Bits/(Pixel*Frame) : 0.177
Stream size : 3.12 GiB (93%)
Default : Yes
Forced : No
Color range : Limited
Color primaries : BT.709
Transfer characteristics : BT.709
Matrix coefficients : BT.709

Audio
ID : 2
Format : E-AC-3
Format/Info : Enhanced AC-3
Commercial name : Dolby Digital Plus
Codec ID : A_EAC3
Duration : 50 min 40 s
Bit rate mode : Constant
Bit rate : 640 kb/s
Channel(s) : 6 channels
Channel layout : L R C LFE Ls Rs
Sampling rate : 48.0 kHz
Frame rate : 31.250 FPS (1536 SPF)
Compression mode : Lossy
Stream size : 232 MiB (7%)
Language : English
Service kind : Complete Main
Default : Yes
Forced : No

Text
ID : 3
Format : UTF-8
Codec ID : S_TEXT/UTF8
Codec ID/Info : UTF-8 Plain Text
Duration : 49 min 38 s
Bit rate : 59 b/s
Count of elements : 781
Stream size : 21.8 KiB (0%)
Title : English (SDH)
Language : English
Default : No
Forced : No



#1楼
发帖时间:2018-11-29 21:39:05   |   回复数:4
david19710102
超级版主

TLF字幕组

Season 1 外挂字幕


1 个附件 售价 大小 下载 时间

Star.Trek.S01.1080p.AMZN.WEB-DL.DDP5.1.H265-SiGMA.TLF字幕组.zip 0 金币 915.84K 448 次 10天前

16天前 #2楼
david19710102
超级版主

TLF字幕组

Season 2 外挂字幕


16天前 #3楼
david19710102
超级版主
0112
9天前 #4楼
david19710102
超级版主
0122
7小时前 #5楼
游客组