呆呆狐狸
超级版主

[2018] [美国] [奇幻] [打包] [BT下载][雷蒙·斯尼奇的不幸历险/Unfortunate Event 第二季][全10集打包][英语中字][MKV][2160P][片源]

-->

注:Netflix版片源 内含官方中字  更多字幕详见下面参数列表

◎译  名 高堡奇人/高城堡里的人

◎片  名 The Man in the High Castle 

◎年  代 2015

◎产  地 美国

◎类  别 剧情/科幻/惊悚

◎语  言 英语/德语/日语/粤语

◎上映日期 2015-01-15(试播集)/2015-11-20(美国)

◎IMDb评分  8.1/10 from 54,477 users

◎IMDb链接  http://www.imdb.com/title/tt1740299/

◎豆瓣评分 7.6/10 from 7,027 users

◎豆瓣链接 https://movie.douban.com/subject/5320649/

◎BT之家整理 http://www.btbtt.co

◎片  长 55分钟

◎导  演 大卫·塞梅尔 David Semel

◎主  演 艾莉克莎·黛沃洛斯 Alexa Davalos

      鲁珀特·伊文斯 Rupert Evans

      卢克·克莱恩坦克 Luke Kleintank

      DJ·考尔斯 DJ Qualls

      乔尔·德·拉·冯特 Joel de la Fuente

      田川洋行 Cary-Hiroyuki Tagawa

      卢夫斯·塞维尔 Rufus Sewell

      迈克尔·瑞斯玻利 Michael Rispoli

      杰弗里·布莱克 Geoffrey Blake

      卡尔斯腾·诺尔加拉德 Carsten Norgaard

      康纳·莱斯利 Conor Leslie

      阿诺德·陈 Arnold Chun

      里克·沃尔斯 Rick Worthy

      杰克·科勒尔 Jack Kehler

      汉克·哈里斯 Hank Harris

      香农·戴 Shannon Day

      松崎悠希 Yuki Matsuzaki

      伯恩哈德·福克 Bernhard Forcher

      艾伦·哈韦 Allan Havey

      朗·罗格 Ron Roggé

      保罗·佩普 Paul Pape

      冈本多绪 Tao Okamoto


◎简  介


  

  《高堡奇人》讲述了一个替代现实故事,德国和日本打赢了二战,美国被德国和日本统治,希特勒感染了梅毒,德国开始征服太阳系,而一位高堡奇人却在创作一本书讲述美国打赢二战的故事。


Video
ID : 1
Format : HEVC
Format/Info : High Efficiency Video Coding
Format profile : Main [email protected]@Main
Codec ID : V_MPEGH/ISO/HEVC
Duration : 51 min 25 s
Bit rate : 15.8 Mb/s
Width : 3 840 pixels
Height : 1 920 pixels
Display aspect ratio : 2.000
Frame rate mode : Constant
Frame rate : 24.000 FPS
Color space : YUV
Chroma subsampling : 4:2:0
Bit depth : 10 bits
Bits/(Pixel*Frame) : 0.089
Stream size : 5.67 GiB (98%)
Writing library : x265 2.7 20-3440a56acc78:[Windows][GCC 6.3.0][64 bit] 10bit
Encoding settings : cpuid=1173503 / frame-threads=4 / numa-pools=28,0 / wpp / no-pmode / no-pme / no-psnr / no-ssim / log-level=2 / input-csp=1 / input-res=3840x1920 / interlace=0 / total-frames=0 / level-idc=0 / high-tier=1 / uhd-bd=0 / ref=5 / no-allow-non-conformance / repeat-headers / annexb / no-aud / no-hrd / info / hash=0 / no-temporal-layers / open-gop / min-keyint=24 / keyint=250 / gop-lookahead=0 / bframes=8 / b-adapt=2 / b-pyramid / bframe-bias=0 / rc-lookahead=40 / lookahead-slices=0 / scenecut=40 / radl=0 / no-intra-refresh / ctu=64 / min-cu-size=8 / rect / amp / max-tu-size=32 / tu-inter-depth=3 / tu-intra-depth=3 / limit-tu=4 / rdoq-level=2 / dynamic-rd=0.00 / no-ssim-rd / signhide / no-tskip / nr-intra=0 / nr-inter=0 / no-constrained-intra / no-strong-intra-smoothing / max-merge=4 / limit-refs=1 / limit-modes / me=3 / subme=4 / merange=57 / temporal-mvp / weightp / weightb / no-analyze-src-pics / deblock=0:0 / sao / no-sao-non-deblock / rd=6 / no-early-skip / rskip / no-fast-intra / no-tskip-fast / no-cu-lossless / b-intra / no-splitrd-skip / rdpenalty=0 / psy-rd=2.00 / psy-rdoq=1.00 / no-rd-refine / no-lossless / cbqpoffs=0 / crqpoffs=0 / rc=crf / crf=17.0 / qcomp=0.60 / qpstep=4 / stats-write=0 / stats-read=0 / ipratio=1.40 / pbratio=1.30 / aq-mode=1 / aq-strength=1.00 / cutree / zone-count=0 / no-strict-cbr / qg-size=32 / no-rc-grain / qpmax=69 / qpmin=0 / no-const-vbv / sar=0 / overscan=0 / videoformat=5 / range=0 / colorprim=9 / transfer=16 / colormatrix=9 / chromaloc=0 / display-window=0 / master-display=G(13250,34500)B(7500,3000)R(34000,16000)WP(15635,16450)L(40000000,50) / max-cll=742,260 / min-luma=0 / max-luma=1023 / log2-max-poc-lsb=8 / vui-timing-info / vui-hrd-info / slices=1 / no-opt-qp-pps / no-opt-ref-list-length-pps / no-multi-pass-opt-rps / scenecut-bias=0.05 / no-opt-cu-delta-qp / no-aq-motion / hdr / hdr-opt / no-dhdr10-opt / no-idr-recovery-sei / analysis-reuse-level=5 / scale-factor=0 / refine-intra=0 / refine-inter=0 / refine-mv=0 / no-limit-sao / ctu-info=0 / no-lowpass-dct / refine-mv-type=0 / copy-pic=1 / max-ausize-factor=1.0 / no-dynamic-refine
Default : Yes
Forced : No
Color range : Limited
Color primaries : BT.2020
Transfer characteristics : PQ
Matrix coefficients : BT.2020 non-constant
Mastering display color primaries : Display P3
Mastering display luminance : min: 0.0050 cd/m2, max: 4000 cd/m2
Maximum Content Light Level : 742 cd/m2
Maximum Frame-Average Light Level : 260 cd/m2

Audio
ID : 2
Format : AC-3
Format/Info : Audio Coding 3
Codec ID : A_AC3
Duration : 52 min 20 s
Bit rate mode : Constant
Bit rate : 384 kb/s
Channel(s) : 6 channels
Channel positions : Front: L C R, Side: L R, LFE
Sampling rate : 48.0 kHz
Frame rate : 31.250 FPS (1536 SPF)
Bit depth : 16 bits
Compression mode : Lossy
Stream size : 144 MiB (2%)
Language : English
Service kind : Complete Main
Default : Yes
Forced : No

Text #1
ID : 3
Format : UTF-8
Codec ID : S_TEXT/UTF8
Codec ID/Info : UTF-8 Plain Text
Duration : 49 min 41 s
Bit rate : 91 b/s
Count of elements : 780
Stream size : 33.2 KiB (0%)
Language : English
Default : No
Forced : No

Text #2
ID : 4
Format : UTF-8
Codec ID : S_TEXT/UTF8
Codec ID/Info : UTF-8 Plain Text
Duration : 49 min 49 s
Bit rate : 96 b/s
Count of elements : 828
Stream size : 35.1 KiB (0%)
Title : SDH
Language : English
Default : No
Forced : No

Text #3
ID : 5
Format : UTF-8
Codec ID : S_TEXT/UTF8
Codec ID/Info : UTF-8 Plain Text
Duration : 49 min 45 s
Bit rate : 148 b/s
Count of elements : 784
Stream size : 54.0 KiB (0%)
Language : Arabic
Default : No
Forced : No

Text #4
ID : 6
Format : UTF-8
Codec ID : S_TEXT/UTF8
Codec ID/Info : UTF-8 Plain Text
Duration : 49 min 46 s
Bit rate : 81 b/s
Count of elements : 715
Stream size : 29.8 KiB (0%)
Language : Danish
Default : No
Forced : No

Text #5
ID : 7
Format : UTF-8
Codec ID : S_TEXT/UTF8
Codec ID/Info : UTF-8 Plain Text
Duration : 49 min 46 s
Bit rate : 81 b/s
Count of elements : 772
Stream size : 29.8 KiB (0%)
Language : German
Default : No
Forced : No

Text #6
ID : 8
Format : UTF-8
Codec ID : S_TEXT/UTF8
Codec ID/Info : UTF-8 Plain Text
Duration : 49 min 46 s
Bit rate : 153 b/s
Count of elements : 783
Stream size : 56.1 KiB (0%)
Language : Greek
Default : No
Forced : No

Text #7
ID : 9
Format : UTF-8
Codec ID : S_TEXT/UTF8
Codec ID/Info : UTF-8 Plain Text
Duration : 49 min 46 s
Bit rate : 85 b/s
Count of elements : 777
Stream size : 31.3 KiB (0%)
Language : Spanish
Default : No
Forced : No

Text #8
ID : 10
Format : UTF-8
Codec ID : S_TEXT/UTF8
Codec ID/Info : UTF-8 Plain Text
Duration : 49 min 46 s
Bit rate : 86 b/s
Count of elements : 788
Stream size : 31.7 KiB (0%)
Title : European
Language : Spanish
Default : No
Forced : No

Text #9
ID : 11
Format : UTF-8
Codec ID : S_TEXT/UTF8
Codec ID/Info : UTF-8 Plain Text
Duration : 49 min 46 s
Bit rate : 74 b/s
Count of elements : 783
Stream size : 27.3 KiB (0%)
Language : Finnish
Default : No
Forced : No

Text #10
ID : 12
Format : UTF-8
Codec ID : S_TEXT/UTF8
Codec ID/Info : UTF-8 Plain Text
Duration : 49 min 46 s
Bit rate : 87 b/s
Count of elements : 775
Stream size : 31.7 KiB (0%)
Language : French
Default : No
Forced : No

Text #11
ID : 13
Format : UTF-8
Codec ID : S_TEXT/UTF8
Codec ID/Info : UTF-8 Plain Text
Duration : 49 min 46 s
Bit rate : 134 b/s
Count of elements : 748
Stream size : 49.0 KiB (0%)
Language : Hebrew
Default : No
Forced : No

Text #12
ID : 14
Format : UTF-8
Codec ID : S_TEXT/UTF8
Codec ID/Info : UTF-8 Plain Text
Duration : 49 min 46 s
Bit rate : 85 b/s
Count of elements : 780
Stream size : 31.0 KiB (0%)
Language : Italian
Default : No
Forced : No

Text #13
ID : 15
Format : UTF-8
Codec ID : S_TEXT/UTF8
Codec ID/Info : UTF-8 Plain Text
Duration : 49 min 47 s
Bit rate : 71 b/s
Count of elements : 767
Stream size : 26.2 KiB (0%)
Language : Japanese
Default : No
Forced : No

Text #14
ID : 16
Format : UTF-8
Codec ID : S_TEXT/UTF8
Codec ID/Info : UTF-8 Plain Text
Duration : 49 min 45 s
Bit rate : 110 b/s
Count of elements : 838
Stream size : 40.2 KiB (0%)
Language : Korean
Default : No
Forced : No

Text #15
ID : 17
Format : UTF-8
Codec ID : S_TEXT/UTF8
Codec ID/Info : UTF-8 Plain Text
Duration : 49 min 46 s
Bit rate : 82 b/s
Count of elements : 780
Stream size : 30.1 KiB (0%)
Language : Norwegian Bokmal
Default : No
Forced : No

Text #16
ID : 18
Format : UTF-8
Codec ID : S_TEXT/UTF8
Codec ID/Info : UTF-8 Plain Text
Duration : 49 min 46 s
Bit rate : 78 b/s
Count of elements : 724
Stream size : 28.5 KiB (0%)
Language : Dutch
Default : No
Forced : No

Text #17
ID : 19
Format : UTF-8
Codec ID : S_TEXT/UTF8
Codec ID/Info : UTF-8 Plain Text
Duration : 49 min 46 s
Bit rate : 82 b/s
Count of elements : 776
Stream size : 30.0 KiB (0%)
Language : Polish
Default : No
Forced : No

Text #18
ID : 20
Format : UTF-8
Codec ID : S_TEXT/UTF8
Codec ID/Info : UTF-8 Plain Text
Duration : 49 min 46 s
Bit rate : 89 b/s
Count of elements : 777
Stream size : 32.6 KiB (0%)
Language : Portuguese
Default : No
Forced : No

Text #19
ID : 21
Format : UTF-8
Codec ID : S_TEXT/UTF8
Codec ID/Info : UTF-8 Plain Text
Duration : 49 min 46 s
Bit rate : 79 b/s
Count of elements : 767
Stream size : 28.8 KiB (0%)
Title : Brazilian
Language : Portuguese
Default : No
Forced : No

Text #20
ID : 22
Format : UTF-8
Codec ID : S_TEXT/UTF8
Codec ID/Info : UTF-8 Plain Text
Duration : 49 min 46 s
Bit rate : 89 b/s
Count of elements : 766
Stream size : 32.7 KiB (0%)
Language : Romanian
Default : No
Forced : No

Text #21
ID : 23
Format : UTF-8
Codec ID : S_TEXT/UTF8
Codec ID/Info : UTF-8 Plain Text
Duration : 49 min 46 s
Bit rate : 82 b/s
Count of elements : 724
Stream size : 30.1 KiB (0%)
Language : Swedish
Default : No
Forced : No

Text #22
ID : 24
Format : UTF-8
Codec ID : S_TEXT/UTF8
Codec ID/Info : UTF-8 Plain Text
Duration : 49 min 46 s
Bit rate : 229 b/s
Count of elements : 787
Stream size : 83.7 KiB (0%)
Language : Thai
Default : No
Forced : No

Text #23
ID : 25
Format : UTF-8
Codec ID : S_TEXT/UTF8
Codec ID/Info : UTF-8 Plain Text
Duration : 49 min 46 s
Bit rate : 90 b/s
Count of elements : 789
Stream size : 32.8 KiB (0%)
Language : Turkish
Default : No
Forced : No

Text #24
ID : 26
Format : UTF-8
Codec ID : S_TEXT/UTF8
Codec ID/Info : UTF-8 Plain Text
Duration : 49 min 46 s
Bit rate : 112 b/s
Count of elements : 783
Stream size : 41.2 KiB (0%)
Language : Vietnamese
Default : No
Forced : No

Text #25
ID : 27
Format : UTF-8
Codec ID : S_TEXT/UTF8
Codec ID/Info : UTF-8 Plain Text
Duration : 49 min 46 s
Bit rate : 82 b/s
Count of elements : 783
Stream size : 30.1 KiB (0%)
Title : Simplified
Language : Chinese
Default : No
Forced : No

Text #26
ID : 28
Format : UTF-8
Codec ID : S_TEXT/UTF8
Codec ID/Info : UTF-8 Plain Text
Duration : 49 min 46 s
Bit rate : 77 b/s
Count of elements : 789
Stream size : 28.1 KiB (0%)
Title : Traditional
Language : Chinese
Default : No
Forced : No



1 个附件 售价 大小 下载 时间

A.Series.of.Unfortunate.Events.S02.2160p.NF.WEBRip.x265.10bit.HDR.DD5.1-TrollUHD[btbtt.me].torrent 0 金币 126.21K 1708 次 2018-5-1

#1楼
发帖时间:2018-05-01 20:36:55   |   回复数:2
jintong19861021
禁止发言
用户被禁言,帖子被屏蔽。
2018-5-1 #2楼
chulps
一代宗师
ddd
2月前 #3楼
游客组