travismk
一代宗师

[2007] [欧美] [喜剧] [WEB-1080P] 戴着手铐去度假 Holiday.in.Handcuffs.2007.1080p.HULU.WEBRip.AAC2.0.x264-NYH 3.76GB

-->

帖子完整标题:戴着手铐去度假 Holiday.in.Handcuffs.2007.1080p.HULU.WEBRip.AAC2.0.x264-NYH 3.76GB



◎译  名 戴着手铐去度假
◎片  名 Holiday in Handcuffs
◎年  代 2007
◎产  地 美国
◎类  别 喜剧 / 家庭 / 犯罪
◎语  言 英语
◎上映日期 2007-12-09
◎IMDb评分 6.3/10 from 5934 users
◎IMDb链接 https://www.imdb.com/title/tt0938666/
◎豆瓣评分 /10 from 0 users
◎豆瓣链接 https://movie.douban.com/subject/3259955/
◎片  长 86分钟
◎导  演 罗恩·安德伍德 Ron Underwood
◎主  演 格里克·温斯顿 Gerrick Winston
      琼·洛克哈特 June Lockhart
      马里奥·洛佩兹 Mario López
      凡妮莎·李·艾维甘 Vanessa Lee Evigan
      玛基·珀斯特 Markie Post
      蒂姆斯·伯特姆斯 Timothy Bottoms
      凯尔·霍华德 Kyle Howard
      格雷格·劳森 Greg Lawson
      加布里埃尔·米勒 Gabrielle Miller
      Marty Hanenberg
      本杰明·艾瑞斯 Benjamin Ayres
      梅利莎·琼·哈特 Melissa Joan Hart

◎标  签 美国 | 电影 | M美国 | D罗恩·安德伍德 | ABC

◎简  介

  A struggling artist working as waitress kidnaps one of her customers to bring home and meet her parents at Christmas.

Video
ID : 1
Format : AVC
Format/Info : Advanced Video Codec
Format profile : [email protected]
Format settings : CABAC / 4 Ref Frames
Format settings, CABAC : Yes
Format settings, Reference frames : 4 frames
Codec ID : V_MPEG4/ISO/AVC
Duration : 1 h 30 min
Bit rate : 5 902 kb/s
Width : 1 920 pixels
Height : 1 080 pixels
Display aspect ratio : 16:9
Frame rate mode : Constant
Frame rate : 23.976 (24000/1001/189150) FPS
Color space : YUV
Chroma subsampling : 4:2:0
Bit depth : 8 bits
Scan type : Progressive
Bits/(Pixel*Frame) : 0.119
Stream size : 3.72 GiB (99%)
Default : Yes
Forced : No

Audio
ID : 2
Format : AAC LC SBR
Format/Info : Advanced Audio Codec Low Complexity with Spectral Band Replication
Commercial name : HE-AAC
Format settings : Explicit
Codec ID : A_AAC-2
Duration : 1 h 30 min
Bit rate : 64.0 kb/s
Channel(s) : 2 channels
Channel layout : L R
Sampling rate : 48.0 kHz
Frame rate : 23.438 FPS (2048 SPF)
Compression mode : Lossy
Stream size : 41.3 MiB (1%)
Language : English
Default : Yes
Forced : No

Text
ID : 3
Format : UTF-8
Codec ID : S_TEXT/UTF8
Codec ID/Info : UTF-8 Plain Text
Duration : 1 h 29 min
Bit rate : 81 b/s
Count of elements : 1906
Stream size : 53.1 KiB (0%)
Title : SDH
Language : English
Default : No
Forced : No





1 个附件 售价 大小 下载 时间

Holiday.in.Handcuffs.2007.1080p.HULU.WEBRip.AAC2.0.x264-NYH.zip 0 金币 38.28K 161 次 7天前

#1楼
发帖时间:2021-02-23 20:43:27   |   回复数:0
游客组