travismk
一代宗师

[更 早] [日本] [剧情] [WEB-1080P] 晚菊 Late.Chrysanthemums.1954.JAPANESE.1080p.AMZN.WEBRip.DDP2.0.x264-SbR 6.90GB

-->

帖子完整标题:晚菊 Late.Chrysanthemums.1954.JAPANESE.1080p.AMZN.WEBRip.DDP2.0.x264-SbR 6.90GB



◎译  名 Bangiku/Late Chrysanthemums
◎片  名 晚菊
◎年  代 1954
◎产  地 日本
◎类  别 剧情
◎语  言 日语
◎上映日期 1954-06-15(日本)
◎IMDb评分 7.4/10 from 918 users
◎IMDb链接 https://www.imdb.com/title/tt0046750/
◎豆瓣评分 7.9/10 from 470 users
◎豆瓣链接 https://movie.douban.com/subject/1414807/
◎片  长 101分钟
◎导  演 成濑巳喜男 Mikio Naruse
◎编  剧 田中澄江 Sumie Tanaka / 林芙美子 Fumiko Hayashi / 井手俊郎 Toshir? Ide
◎主  演 杉村春子 Haruko Sugimura
      上原谦 Ken Uehara
      有马稻子 Ineko Arima

◎标  签 成濑巳喜男 | 日本 | 日本电影 | 1950s | 1954 | 成瀨巳喜男 | 杉村春子 | 黑白

◎简  介

  战后的日本,四名退休艺妓用另一种方式维持着彼此当年的关系,也体味着生活的孤独。绪纪(杉村春子 饰)年轻时纠缠于多名男子之间,时至今日仍有当年的情人打扰她的生活,孑然一身的绪纪放高利贷给昔日姐妹,用刻薄的态度掩盖些许失落。音美与玉惠合租一室,膝下分别育有一儿一女,如今音美沉溺赌博、玉惠卧病,不得不忍受绪纪的奚落。年岁渐长的儿女成家远行,音美同玉惠一时倍感孤苦,只能借酒浇愁……
  
  绪纪久久不能忘怀的情人田部(上原谦 饰)来访,但这个步入中年的男人早已无曾经的意气风发,绪纪燃起的最后一点希望也将幻灭么?
  
  本片根据作家林芙美子的三篇小说改编,位列《电影旬报》年度十佳第七位。

Video
ID : 1
Format : AVC
Format/Info : Advanced Video Codec
Format profile : [email protected]
Format settings : CABAC / 4 Ref Frames
Format settings, CABAC : Yes
Format settings, Reference frames : 4 frames
Codec ID : V_MPEG4/ISO/AVC
Duration : 1 h 41 min
Bit rate mode : Constant
Bit rate : 10 000 kb/s
Width : 1 440 pixels
Height : 1 080 pixels
Display aspect ratio : 4:3
Frame rate mode : Constant
Frame rate : 23.976 (24000/1001/189150) FPS
Color space : YUV
Chroma subsampling : 4:2:0
Bit depth : 8 bits
Scan type : Progressive
Bits/(Pixel*Frame) : 0.268
Stream size : 6.74 GiB (98%)
Language : Japanese
Default : Yes
Forced : No
Color range : Limited
Color primaries : BT.709
Transfer characteristics : BT.709
Matrix coefficients : BT.709

Audio
ID : 2
Format : E-AC-3
Format/Info : Enhanced AC-3
Commercial name : Dolby Digital Plus
Codec ID : A_EAC3
Duration : 1 h 41 min
Bit rate mode : Constant
Bit rate : 224 kb/s
Channel(s) : 2 channels
Channel layout : L R
Sampling rate : 48.0 kHz
Frame rate : 31.250 FPS (1536 SPF)
Compression mode : Lossy
Stream size : 162 MiB (2%)
Language : Japanese
Service kind : Complete Main
Default : Yes
Forced : No

Text
ID : 3
Format : UTF-8
Codec ID : S_TEXT/UTF8
Codec ID/Info : UTF-8 Plain Text
Duration : 1 h 40 min
Bit rate : 34 b/s
Count of elements : 858
Stream size : 25.2 KiB (0%)
Language : English
Default : Yes
Forced : No

Menu
00:00:00.000 : en: 1. Okin: The New Economy
00:11:26.686 : en: 2. Tamae: Mother and Son
00:23:11.932 : en: 3. Tamae and Otomi
00:32:51.261 : en: 4. Sachiko, a Modern Daughter
00:44:07.854 : en: 5. Kiyoshi\'s Employment Options
00:52:45.120 : en: 6. Two Old Lovers
01:08:13.298 : en: 7. The Old Flame Returns
01:17:54.920 : en: 8. Getting Drunk
01:26:34.731 : en: 9. A Restless Night
01:34:11.646 : en:10. Left Alone





1 个附件 售价 大小 下载 时间

Late.Chrysanthemums.1954.JAPANESE.1080p.AMZN.WEBRip.DDP2.0.x264-SbR.zip 0 金币 35.19K 518 次 5天前

#1楼
发帖时间:2021-01-13 11:59:04   |   回复数:0
游客组