travismk
一代宗师

[2013] [欧美] [恐怖] [WEB-1080P] 与魔鬼同车 Devil.in.My.Ride.2013.1080p.AMZN.WEBRip.DDP2.0.x264-NTG 5.08GB

-->

帖子完整标题:与魔鬼同车 Devil.in.My.Ride.2013.1080p.AMZN.WEBRip.DDP2.0.x264-NTG 5.08GB



◎译  名 与魔鬼同车
◎片  名 Devil in My Ride
◎年  代 2013
◎产  地 美国
◎类  别 恐怖 / 奇幻
◎语  言 英语
◎上映日期 2013-10-06
◎IMDb评分 4.6/10 from 152 users
◎IMDb链接 https://www.imdb.com/title/tt2072939/
◎豆瓣评分 /10 from 0 users
◎豆瓣链接 https://movie.douban.com/subject/25828493/

◎标  签 美国电影 | 恐怖 | 奇幻

◎简  介

  暂无相关剧情介绍

Video
ID : 1
Format : AVC
Format/Info : Advanced Video Codec
Format profile : [email protected]
Format settings : CABAC / 4 Ref Frames
Format settings, CABAC : Yes
Format settings, Reference frames : 4 frames
Codec ID : V_MPEG4/ISO/AVC
Duration : 1 h 34 min
Bit rate mode : Constant
Bit rate : 7 441 kb/s
Nominal bit rate : 10 000 kb/s
Width : 1 920 pixels
Height : 1 080 pixels
Display aspect ratio : 16:9
Frame rate mode : Constant
Frame rate : 23.976 (24000/1001/189150) FPS
Color space : YUV
Chroma subsampling : 4:2:0
Bit depth : 8 bits
Scan type : Progressive
Bits/(Pixel*Frame) : 0.150
Stream size : 4.93 GiB (97%)
Default : Yes
Forced : No
Color range : Limited
Color primaries : BT.709
Transfer characteristics : BT.709
Matrix coefficients : BT.709

Audio
ID : 2
Format : E-AC-3
Format/Info : Enhanced AC-3
Commercial name : Dolby Digital Plus
Codec ID : A_EAC3
Duration : 1 h 34 min
Bit rate mode : Constant
Bit rate : 224 kb/s
Channel(s) : 2 channels
Channel layout : L R
Sampling rate : 48.0 kHz
Frame rate : 31.250 FPS (1536 SPF)
Compression mode : Lossy
Stream size : 152 MiB (3%)
Language : English
Service kind : Complete Main
Default : Yes
Forced : No

Text #1
ID : 3
Format : UTF-8
Codec ID : S_TEXT/UTF8
Codec ID/Info : UTF-8 Plain Text
Duration : 1 h 31 min
Bit rate : 60 b/s
Count of elements : 2064
Stream size : 40.6 KiB (0%)
Language : English
Default : No
Forced : No

Text #2
ID : 4
Format : UTF-8
Codec ID : S_TEXT/UTF8
Codec ID/Info : UTF-8 Plain Text
Duration : 1 h 34 min
Bit rate : 64 b/s
Count of elements : 2300
Stream size : 45.0 KiB (0%)
Title : SDH
Language : English
Default : No
Forced : No





1 个附件 售价 大小 下载 时间

Devil.in.My.Ride.2013.1080p.AMZN.WEBRip.DDP2.0.x264-NTG.zip 0 金币 26.08K 105 次 5天前

#1楼
发帖时间:2021-01-13 11:56:41   |   回复数:0
游客组