travismk
一代宗师

[更 早] [日本] [剧情] [WEB-1080P] 真田幸村之谋略 The.Shogun.Assassins.1979.JAPANESE.1080p.AMZN.WEBRip.DDP2.0.x264-SbR 9.9

-->

帖子完整标题:真田幸村之谋略 The.Shogun.Assassins.1979.JAPANESE.1080p.AMZN.WEBRip.DDP2.0.x264-SbR 9.97GB



◎译  名 真田幸村之谋略/Sanada Yukimura no bouryaku
◎片  名 真田幸村の謀略
◎年  代 1979
◎产  地 日本
◎类  别 剧情 / 动作
◎语  言 日语
◎上映日期 1979-09-01
◎IMDb评分 6/10 from 115 users
◎IMDb链接 https://www.imdb.com/title/tt0165218/
◎豆瓣评分 /10 from 0 users
◎豆瓣链接 https://movie.douban.com/subject/3163179/
◎片  长 148 分钟
◎导  演 中岛贞夫 Sadao Nakajima
◎编  剧 中岛贞夫 Sadao Nakajima / 笠原和夫 Kazuo Kasahara
◎主  演 松方弘树 Hiroki Matsukata
      中村锦之助 Kinnosuke Nakamura
      火野正平 Sh?hei Hino
      森田健作 Kensaku Morita
      秋野畅子 Yoko Akino
      小仓一郎 Ichir? Ogura
      寺田农 Minori Terada
      片冈千惠藏 Chiezo Kataoka
      高峰三枝子 Mieko Takamine
      浜村淳 Jun Hamamura
      丹波哲郎 Tetsur? Tanba
      真田广之 Hiroyuki Sanada
      青井辉彦 Teruhiko Aoi
      浅野优子 Y?ko Asano
      福本清三 Seizo Fukumoto

◎标  签 日本电影 | 武士片 | 日本 | 历史 | 中岛贞夫 | 电影 | 古装迷 | 非常想看

◎简  介

  大阪冬の陣、そして夏の陣を巡る豊臣勢の壊滅を狙い、天下統一を目指す徳川家康に挑む真田幸村とその十勇士たちの姿を描く。『柳生一族の陰謀』の流れをくむ東映大型アクション時代劇だが、冒頭の大隕石シーンをはじめSFXを多用。内容的にも、真田十勇士を超能力者として扱うなど破天荒な色合いが強い作品。
  
  真田幸村(松方弘樹)は家康(萬屋錦之介)の首を狙っていたが、逆に家康の企てに嵌められる。そんな幸村だったが、家康の弾圧を受ける諸国の民達を代表するかのごとく、霧隠才蔵(寺田農)、猿飛佐助(あおい輝彦)ら真田十勇士が集うことに。時を同じくして、豊臣家の滅亡を狙う家康が大阪冬の陣、夏の陣への謀略を巡らせて…。

Video
ID : 1
Format : AVC
Format/Info : Advanced Video Codec
Format profile : [email protected]
Format settings : CABAC / 4 Ref Frames
Format settings, CABAC : Yes
Format settings, Reference frames : 4 frames
Codec ID : V_MPEG4/ISO/AVC
Duration : 2 h 28 min
Bit rate mode : Variable
Bit rate : 9 413 kb/s
Maximum bit rate : 15.0 Mb/s
Width : 1 920 pixels
Height : 816 pixels
Display aspect ratio : 2.35:1
Frame rate mode : Constant
Frame rate : 23.976 (24000/1001/189150) FPS
Color space : YUV
Chroma subsampling : 4:2:0
Bit depth : 8 bits
Scan type : Progressive
Bits/(Pixel*Frame) : 0.251
Stream size : 9.74 GiB (98%)
Writing library : x264 core 148 r2623 d5b2374
Encoding settings : cabac=1 / ref=4 / deblock=1:-1:-1 / analyse=0x3:0x133 / me=umh / subme=9 / psy=1 / psy_rd=1.00:0.15 / mixed_ref=1 / me_range=24 / chroma_me=1 / trellis=2 / 8x8dct=1 / cqm=0 / deadzone=21,11 / fast_pskip=1 / chroma_qp_offset=-3 / threads=25 / lookahead_threads=4 / sliced_threads=0 / nr=150 / decimate=1 / interlaced=0 / bluray_compat=0 / constrained_intra=0 / bframes=8 / b_pyramid=2 / b_adapt=2 / b_bias=0 / direct=3 / weightb=1 / open_gop=0 / weightp=2 / keyint=120 / keyint_min=61 / scenecut=0 / intra_refresh=0 / rc_lookahead=120 / rc=crf / mbtree=1 / crf=18.0 / qcomp=0.60 / qpmin=0 / qpmax=69 / qpstep=4 / vbv_maxrate=15000 / vbv_bufsize=31250 / crf_max=0.0 / nal_hrd=vbr / filler=0 / ip_ratio=1.40 / aq=3:1.00
Default : Yes
Forced : No
Color range : Limited
Color primaries : BT.709
Transfer characteristics : BT.709
Matrix coefficients : BT.709

Audio
ID : 2
Format : E-AC-3
Format/Info : Enhanced AC-3
Commercial name : Dolby Digital Plus
Codec ID : A_EAC3
Duration : 2 h 28 min
Bit rate mode : Constant
Bit rate : 224 kb/s
Channel(s) : 2 channels
Channel layout : L R
Sampling rate : 48.0 kHz
Frame rate : 31.250 FPS (1536 SPF)
Compression mode : Lossy
Stream size : 237 MiB (2%)
Language : Japanese
Service kind : Complete Main
Default : Yes
Forced : No

Text
ID : 3
Format : UTF-8
Codec ID : S_TEXT/UTF8
Codec ID/Info : UTF-8 Plain Text
Duration : 2 h 27 min
Bit rate : 44 b/s
Count of elements : 1594
Stream size : 48.1 KiB (0%)
Language : English
Default : Yes
Forced : No





1 个附件 售价 大小 下载 时间

The.Shogun.Assassins.1979.JAPANESE.1080p.AMZN.WEBRip.DDP2.0.x264-SbR.zip 0 金币 50.59K 1562 次 5天前

#1楼
发帖时间:2021-01-13 11:49:11   |   回复数:1
liyouchai
隐世仙人♂
谢谢楼主分享资源
5天前 #2楼
游客组