travismk
一代宗师

[2014] [其他] [动作] [BD-4K] 霍比特人3:五军之战 The.Hobbit.The.Battle.of.the.Five.Armies.2014.EXTENDED.2160p.BluRay.x

-->

帖子完整标题:霍比特人3:五军之战 The.Hobbit.The.Battle.of.the.Five.Armies.2014.EXTENDED.2160p.BluRay.x265.10bit.SDR.DTS-HD.MA.TrueHD.7.1.Atmos-SWTYBLZ 45.86GB



◎译  名 霍比特人3:五军之战/There and Back Again/哈比人:五军之战(港/台)/哈比人:奇境再返(台)/哈比人:汗血回归/指环王前传:霍比特人(下)/霍比特人3:去而复返
◎片  名 The Hobbit: The Battle of the Five Armies
◎年  代 2014
◎产  地 美国,新西兰
◎类  别 动作 / 奇幻 / 冒险
◎语  言 英语
◎上映日期 2014-12-17(美国) / 2015-01-23(中国大陆)
◎IMDb评分 7.4/10 from 469108 users
◎IMDb链接 https://www.imdb.com/title/tt2310332/
◎豆瓣评分 8.5/10 from 309368 users
◎豆瓣链接 https://movie.douban.com/subject/2973079/
◎片  长 144分钟
◎导  演 彼得·杰克逊 Peter Jackson
◎编  剧 弗兰·威尔士 Fran Walsh / 菲利帕·鲍恩斯 Philippa Boyens / 彼得·杰克逊 Peter Jackson / 吉尔莫·德尔·托罗 Guillermo del Toro / J·R·R·托尔金 J.R.R. Tolkien
◎主  演 马丁·弗瑞曼 Martin Freeman
      伊恩·麦克莱恩 Ian McKellen
      理查德·阿米蒂奇 Richard Armitage
      伊万杰琳·莉莉 Evangeline Lilly
      李·佩斯 Lee Pace
      卢克·伊万斯 Luke Evans
      本尼迪克特·康伯巴奇 Benedict Cumberbatch
      肯·斯托特 Ken Stott
      詹姆斯·内斯比特 James Nesbitt
      比利·康诺利 Billy Connolly
      凯特·布兰切特 Cate Blanchett
      伊安·霍姆 Ian Holm
      克里斯托弗·李 Christopher Lee
      雨果·维文 Hugo Weaving
      奥兰多·布鲁姆 Orlando Bloom
      马努·贝内特 Manu Bennett
      艾丹·特纳 Aidan Turner
      迪恩·奥戈曼 Dean O'Gorman
      格拉汉姆·麦克泰维什 Graham McTavish
      斯蒂芬·弗雷 Stephen Fry
      米卡埃尔·佩斯布兰特 Mikael Persbrandt
      彼得·杰克逊 Peter Jackson
      伊利亚·伍德 Elijah Wood
      布雷特·麦肯齐 Bret McKenzie
      弗兰·威尔士 Fran Walsh
      托马辛·麦肯齐 Thomasin McKenzie
      西尔维斯特·迈可伊 Sylvester McCoy
      亚当·布朗 Adam Brown
      约翰·贝尔 John Bell
      瑞安·盖奇 Ryan Gage
      柯南·史蒂文斯 Conan Stevens
      杰德·布罗菲 Jed Brophy
      布耐恩·布莱塞得 Brian Blessed
      马克·哈德洛 Mark Hadlow
      约翰·凯伦 John Callen
      彼得·汉布尔顿 Peter Hambleton
      斯蒂芬·亨特 Stephen Hunter
      威廉·基尔舍 William Kircher
      佩吉·内斯比特 Peggy Nesbitt
      玛丽·内斯比特 Mary Nesbitt
      约翰·图伊 John Tui
      基兰·沙阿 Kiran Shah
      鲁比·阿什伯恩·瑟金斯 Ruby Ashbourne Serkis

◎标  签 魔幻 | 美国 | 史诗 | 奇幻 | 指环王前传 | 魔戒 | 冒险 | 经典

◎简  介

  被吵醒的史矛革大闹长湖镇,最终为人类巴德(卢克·伊万斯 Luke Evans 饰)射杀。索林·橡木盾(理查德·阿米蒂奇 Richard Armitage 饰)多年的夙愿终于实现,孤山埃尔波尔重新回到矮人手中。然而这位矮人王子仿佛被史矛革的贪婪和堆成山的黄金迷惑了心窍,他 疯狂地搜寻象征王位的阿肯宝石,不仅撕毁了付给长湖镇报酬的约定,更拒绝了精灵王(李·佩斯 Lee Pace 饰)索要本族国宝的要求,为此导致三族的战争一触即发。与此同时,苍白半兽人阿索格率领大军浩浩荡荡向孤山逼近。得知消息的灰袍巫师甘道夫(伊恩·麦凯伦 Ian McKellen 饰)从中调停斡旋,而被索林视为唯一朋友的霍比特人比尔博·巴金斯(马丁·弗里曼 Martin John C. Freeman 饰)则掌握着中土命运的关键。五军会战,爆发在即!
  
  本片根据J.R.R·托尔金的同名原著改编,为霍比特人系列的最后一部。

◎获奖情况

  第87届奥斯卡金像奖 ?(2015)
  最佳音效剪辑(提名) 布伦特·布鲁格?/?杰森·卡诺瓦斯
  
  第43届动画安妮奖 ?(2016)
  最佳真人电影动画效果(提名)
  最佳真人电影动画角色(提名)
  
  第21届美国演员工会奖 ?(2015)
  电影最佳特技群戏(提名)
  
  第17届美国青少年选择奖 ?(2015)
  最佳科幻/奇幻电影(提名)
  
  第2届豆瓣电影年度榜单 ?(2015)
  1月最受关注电影(提名)

Video
ID : 1
Format : HEVC
Format/Info : High Efficiency Video Coding
Format profile : Main [email protected]@High
Codec ID : V_MPEGH/ISO/HEVC
Duration : 2 h 44 min
Bit rate : 31.9 Mb/s
Width : 3 840 pixels
Height : 1 608 pixels
Display aspect ratio : 2.40:1
Frame rate mode : Constant
Frame rate : 23.976 (24000/1001/189150) FPS
Color space : YUV
Chroma subsampling : 4:2:0
Bit depth : 10 bits
Bits/(Pixel*Frame) : 0.215
Stream size : 36.5 GiB (80%)
Title : The.Hobbit.The.Battle.of.the.Five.Armies.2014.2160p.BluRay.x265.10bit.SDR.DTS-HD.MA.TrueHD.7.1.Atmos-SWTYBLZ
Writing library : x265 3.0ed72af837053:[Windows][GCC 8.2.0][64 bit] 10bit
Encoding settings : cpuid=1111039 / frame-threads=6 / numa-pools=40 / wpp / no-pmode / no-pme / no-psnr / no-ssim / log-level=2 / input-csp=1 / input-res=3840x1608 / interlace=0 / total-frames=235929 / level-idc=51 / high-tier=1 / uhd-bd=0 / ref=3 / no-allow-non-conformance / repeat-headers / annexb / aud / hrd / info / hash=0 / no-temporal-layers / no-open-gop / min-keyint=1 / keyint=24 / gop-lookahead=0 / bframes=4 / b-adapt=2 / b-pyramid / bframe-bias=0 / rc-lookahead=25 / lookahead-slices=4 / scenecut=40 / radl=0 / no-splice / no-intra-refresh / ctu=64 / min-cu-size=8 / no-rect / no-amp / max-tu-size=32 / tu-inter-depth=1 / tu-intra-depth=1 / limit-tu=0 / rdoq-level=0 / dynamic-rd=0.00 / no-ssim-rd / signhide / no-tskip / nr-intra=0 / nr-inter=0 / no-constrained-intra / strong-intra-smoothing / max-merge=2 / limit-refs=3 / no-limit-modes / me=1 / subme=2 / merange=57 / temporal-mvp / weightp / no-weightb / no-analyze-src-pics / deblock=0:0 / no-sao / no-sao-non-deblock / rd=3 / no-early-skip / rskip / no-fast-intra / no-tskip-fast / no-cu-lossless / no-b-intra / no-splitrd-skip / rdpenalty=0 / psy-rd=2.00 / psy-rdoq=0.00 / no-rd-refine / no-lossless / cbqpoffs=0 / crqpoffs=0 / rc=crf / crf=16.0 / qcomp=0.60 / qpstep=4 / stats-write=0 / stats-read=0 / vbv-maxrate=160000 / vbv-bufsize=160000 / vbv-init=0.9 / crf-max=0.0 / crf-min=0.0 / ipratio=1.40 / pbratio=1.30 / aq-mode=1 / aq-strength=1.00 / cutree / zone-count=0 / no-strict-cbr / qg-size=32 / no-rc-grain / qpmax=69 / qpmin=0 / no-const-vbv / sar=1 / overscan=0 / videoformat=5 / range=0 / colorprim=2 / transfer=2 / colormatrix=2 / chromaloc=0 / display-window=0 / max-cll=0,0 / min-luma=0 / max-luma=1023 / log2-max-poc-lsb=8 / vui-timing-info / vui-hrd-info / slices=1 / opt-qp-pps / opt-ref-list-length-pps / no-multi-pass-opt-rps / scenecut-bias=0.05 / no-opt-cu-delta-qp / no-aq-motion / no-hdr / no-hdr-opt / no-dhdr10-opt / no-idr-recovery-sei / analysis-reuse-level=5 / scale-factor=0 / refine-intra=0 / refine-inter=0 / refine-mv=0 / refine-ctu-distortion=0 / no-limit-sao / ctu-info=0 / no-lowpass-dct / refine-analysis-type=0 / copy-pic=1 / max-ausize-factor=1.0 / no-dynamic-refine / no-single-sei / no-hevc-aq / qp-adaptation-range=1.00
Default : Yes
Forced : No

Audio #1
ID : 2
ID in the original source medium : 4352 (0x1100)
Format : MLP FBA 16-ch
Format/Info : Meridian Lossless Packing FBA with 16-channel presentation
Commercial name : Dolby TrueHD with Dolby Atmos
Codec ID : A_TRUEHD
Duration : 2 h 44 min
Bit rate mode : Variable
Bit rate : 3 198 kb/s
Maximum bit rate : 4 902 kb/s
Channel(s) : 8 channels
Channel layout : L R C LFE Ls Rs Lb Rb
Sampling rate : 48.0 kHz
Frame rate : 1 200.000 FPS (40 SPF)
Compression mode : Lossless
Stream size : 3.66 GiB (8%)
Title : The.Hobbit.The.Battle.of.the.Five.Armies.2014.2160p.BluRay.x265.10bit.SDR.DTS-HD.MA.TrueHD.7.1.Atmos-SWTYBLZ
Language : English
Default : Yes
Forced : No
Original source medium : Blu-ray
Number of dynamic objects : 11
Bed channel count : 1 channel
Bed channel configuration : LFE

Audio #2
ID : 3
Format : DTS XLL
Format/Info : Digital Theater Systems
Commercial name : DTS-HD Master Audio
Codec ID : A_DTS
Duration : 2 h 44 min
Bit rate mode : Variable
Bit rate : 4 214 kb/s
Channel(s) : 8 channels
Channel layout : C L R LFE Lb Rb Lss Rss
Sampling rate : 48.0 kHz
Frame rate : 93.750 FPS (512 SPF)
Bit depth : 24 bits
Compression mode : Lossless
Stream size : 4.83 GiB (11%)
Title : The.Hobbit.The.Battle.of.the.Five.Armies.2014.2160p.BluRay.x265.10bit.SDR.DTS-HD.MA.TrueHD.7.1.Atmos-SWTYBLZ
Language : English
Default : No
Forced : No

Audio #3
ID : 4
ID in the original source medium : 4352 (0x1100)
Format : AC-3
Format/Info : Audio Coding 3
Commercial name : Dolby Digital
Codec ID : A_AC3
Duration : 2 h 44 min
Bit rate mode : Constant
Bit rate : 448 kb/s
Channel(s) : 6 channels
Channel layout : L R C LFE Ls Rs
Sampling rate : 48.0 kHz
Frame rate : 31.250 FPS (1536 SPF)
Compression mode : Lossy
Stream size : 526 MiB (1%)
Title : The.Hobbit.The.Battle.of.the.Five.Armies.2014.2160p.BluRay.x265.10bit.SDR.DTS-HD.MA.TrueHD.7.1.Atmos-SWTYBLZ
Language : English
Service kind : Complete Main
Default : No
Forced : No
Original source medium : Blu-ray

Text #1
ID : 5
Format : UTF-8
Codec ID : S_TEXT/UTF8
Codec ID/Info : UTF-8 Plain Text
Duration : 2 h 29 min
Bit rate : 30 b/s
Count of elements : 1470
Stream size : 33.2 KiB (0%)
Title : English-SRT
Language : English
Default : Yes
Forced : No

Text #2
ID : 6
ID in the original source medium : 4768 (0x12A0)
Format : PGS
Muxing mode : zlib
Codec ID : S_HDMV/PGS
Codec ID/Info : Picture based subtitle format used on BDs/HD-DVDs
Duration : 2 h 29 min
Bit rate : 21.2 kb/s
Count of elements : 3422
Stream size : 22.7 MiB (0%)
Title : English-PGS
Language : English
Default : No
Forced : No
Original source medium : Blu-ray

Text #3
ID : 7
ID in the original source medium : 4769 (0x12A1)
Format : PGS
Muxing mode : zlib
Codec ID : S_HDMV/PGS
Codec ID/Info : Picture based subtitle format used on BDs/HD-DVDs
Duration : 2 h 42 min
Bit rate : 23.3 kb/s
Count of elements : 3514
Stream size : 27.2 MiB (0%)
Title : German-PGS
Language : German
Default : No
Forced : No
Original source medium : Blu-ray

Text #4
ID : 8
ID in the original source medium : 4770 (0x12A2)
Format : PGS
Muxing mode : zlib
Codec ID : S_HDMV/PGS
Codec ID/Info : Picture based subtitle format used on BDs/HD-DVDs
Duration : 2 h 43 min
Bit rate : 21.2 kb/s
Count of elements : 3560
Stream size : 24.8 MiB (0%)
Title : Italian-PGS
Language : Italian
Default : No
Forced : No
Original source medium : Blu-ray

Text #5
ID : 9
ID in the original source medium : 4771 (0x12A3)
Format : PGS
Muxing mode : zlib
Codec ID : S_HDMV/PGS
Codec ID/Info : Picture based subtitle format used on BDs/HD-DVDs
Duration : 2 h 42 min
Bit rate : 16.6 kb/s
Count of elements : 3126
Stream size : 19.2 MiB (0%)
Title : Chinese-PGS
Language : Chinese
Default : No
Forced : No
Original source medium : Blu-ray

Text #6
ID : 10
ID in the original source medium : 4772 (0x12A4)
Format : PGS
Muxing mode : zlib
Codec ID : S_HDMV/PGS
Codec ID/Info : Picture based subtitle format used on BDs/HD-DVDs
Duration : 2 h 42 min
Bit rate : 13.3 kb/s
Count of elements : 3072
Stream size : 15.5 MiB (0%)
Title : Korean-PGS
Language : Korean
Default : No
Forced : No
Original source medium : Blu-ray

Text #7
ID : 11
ID in the original source medium : 4773 (0x12A5)
Format : PGS
Muxing mode : zlib
Codec ID : S_HDMV/PGS
Codec ID/Info : Picture based subtitle format used on BDs/HD-DVDs
Duration : 2 h 43 min
Bit rate : 15.1 kb/s
Count of elements : 3066
Stream size : 17.6 MiB (0%)
Title : Czech-PGS
Language : Czech
Default : No
Forced : No
Original source medium : Blu-ray

Text #8
ID : 12
ID in the original source medium : 4774 (0x12A6)
Format : PGS
Muxing mode : zlib
Codec ID : S_HDMV/PGS
Codec ID/Info : Picture based subtitle format used on BDs/HD-DVDs
Duration : 2 h 43 min
Bit rate : 16.2 kb/s
Count of elements : 3084
Stream size : 18.9 MiB (0%)
Title : Danish-PGS
Language : Danish
Default : No
Forced : No
Original source medium : Blu-ray

Text #9
ID : 13
ID in the original source medium : 4775 (0x12A7)
Format : PGS
Muxing mode : zlib
Codec ID : S_HDMV/PGS
Codec ID/Info : Picture based subtitle format used on BDs/HD-DVDs
Duration : 2 h 43 min
Bit rate : 15.4 kb/s
Count of elements : 2660
Stream size : 18.0 MiB (0%)
Title : Finnish-PGS
Language : Finnish
Default : No
Forced : No
Original source medium : Blu-ray

Text #10
ID : 14
ID in the original source medium : 4776 (0x12A8)
Format : PGS
Muxing mode : zlib
Codec ID : S_HDMV/PGS
Codec ID/Info : Picture based subtitle format used on BDs/HD-DVDs
Duration : 2 h 43 min
Bit rate : 16.6 kb/s
Count of elements : 3056
Stream size : 19.3 MiB (0%)
Title : Norwegian-PGS
Language : Norwegian
Default : No
Forced : No
Original source medium : Blu-ray

Text #11
ID : 15
ID in the original source medium : 4777 (0x12A9)
Format : PGS
Muxing mode : zlib
Codec ID : S_HDMV/PGS
Codec ID/Info : Picture based subtitle format used on BDs/HD-DVDs
Duration : 2 h 43 min
Bit rate : 15.4 kb/s
Count of elements : 3004
Stream size : 17.9 MiB (0%)
Title : Polish-PGS
Language : Polish
Default : No
Forced : No
Original source medium : Blu-ray

Text #12
ID : 16
ID in the original source medium : 4778 (0x12AA)
Format : PGS
Muxing mode : zlib
Codec ID : S_HDMV/PGS
Codec ID/Info : Picture based subtitle format used on BDs/HD-DVDs
Duration : 2 h 42 min
Bit rate : 16.2 kb/s
Count of elements : 2946
Stream size : 18.8 MiB (0%)
Title : Sewdish-PGS
Language : Swedish
Default : No
Forced : No
Original source medium : Blu-ray

Text #13
ID : 17
ID in the original source medium : 4779 (0x12AB)
Format : PGS
Muxing mode : zlib
Codec ID : S_HDMV/PGS
Codec ID/Info : Picture based subtitle format used on BDs/HD-DVDs
Duration : 2 h 43 min
Bit rate : 16.2 kb/s
Count of elements : 3090
Stream size : 18.9 MiB (0%)
Title : Thai-PGS
Language : Thai
Default : No
Forced : No
Original source medium : Blu-ray

Text #14
ID : 18
ID in the original source medium : 4783 (0x12AF)
Format : PGS
Muxing mode : zlib
Codec ID : S_HDMV/PGS
Codec ID/Info : Picture based subtitle format used on BDs/HD-DVDs
Duration : 2 h 43 min
Bit rate : 17.0 kb/s
Count of elements : 2954
Stream size : 19.8 MiB (0%)
Title : Spanish-PGS
Language : Spanish
Default : No
Forced : No
Original source medium : Blu-ray

Menu
00:00:00.000 : en:Chapter 01
00:05:12.353 : en:Chapter 02
00:12:47.016 : en:Chapter 03
00:13:18.881 : en:Chapter 04
00:18:57.386 : en:Chapter 05
00:23:41.837 : en:Chapter 06
00:24:55.827 : en:Chapter 07
00:26:04.354 : en:Chapter 08
00:27:32.984 : en:Chapter 09
00:35:45.643 : en:Chapter 10
00:36:41.240 : en:Chapter 11
00:40:41.605 : en:Chapter 12
00:42:01.101 : en:Chapter 13
00:43:11.338 : en:Chapter 14
00:46:15.856 : en:Chapter 15
00:51:27.417 : en:Chapter 16
00:54:57.794 : en:Chapter 17
00:56:14.788 : en:Chapter 18
00:58:30.924 : en:Chapter 19
01:00:26.914 : en:Chapter 20
01:02:43.551 : en:Chapter 21
01:06:10.007 : en:Chapter 22
01:12:23.047 : en:Chapter 23
01:17:22.387 : en:Chapter 24
01:20:36.289 : en:Chapter 25
01:24:56.966 : en:Chapter 26
01:28:41.524 : en:Chapter 27
01:30:51.946 : en:Chapter 28
01:33:02.118 : en:Chapter 29
01:35:12.790 : en:Chapter 30
01:38:32.448 : en:Chapter 31
01:39:42.643 : en:Chapter 32
01:41:00.387 : en:Chapter 33
01:45:03.463 : en:Chapter 34
01:47:13.593 : en:Chapter 35
01:49:05.247 : en:Chapter 36
01:50:02.971 : en:Chapter 37
01:52:59.189 : en:Chapter 38
01:53:51.241 : en:Chapter 39
01:57:14.902 : en:Chapter 40
02:05:38.531 : en:Chapter 41
02:12:07.002 : en:Chapter 42
02:15:25.826 : en:Chapter 43
02:18:32.470 : en:Chapter 44
02:20:07.357 : en:Chapter 45
02:22:26.955 : en:Chapter 46
02:26:11.179 : en:Chapter 47
02:30:54.420 : en:Chapter 48





#1楼
发帖时间:2020-12-04 09:35:01   |   回复数:0
游客组