travismk
一代宗师

[2014] [其他] [惊悚] [BD-1080P] 七月寒潮/七月流火 Cold.in.July.2014.LIMITED.1080p.BluRay.X264-AMIABLE 7.65GB

-->

帖子完整标题:七月寒潮/七月流火 Cold.in.July.2014.LIMITED.1080p.BluRay.X264-AMIABLE 7.65GB



◎译  名 七月寒潮/七月流火
◎片  名 Cold in July
◎年  代 2014
◎产  地 美国,法国
◎类  别 惊悚 / 犯罪
◎语  言 英语
◎上映日期 2014-01-18(圣丹斯电影节) / 2014-05-23(美国)
◎IMDb评分 6.8/10 from 33912 users
◎IMDb链接 https://www.imdb.com/title/tt1179031/
◎豆瓣评分 6.1/10 from 1520 users
◎豆瓣链接 https://movie.douban.com/subject/3078632/
◎片  长 109分钟
◎导  演 吉姆·米可 Jim Mickle
◎编  剧 尼克·丹米奇 Nick Damici
◎主  演 迈克尔·C·豪尔 Michael C. Hall
      山姆·夏普德 Sam Shepard
      唐·约翰逊 Don Johnson
      凡妮莎·肖 Vinessa Shaw
      怀亚特·罗素 Wyatt Russell

◎标  签 犯罪 | 美国 | 惊悚 | 悬疑 | 2014 | 剧情 | 暴力 | 人性

◎简  介

  出于自卫,理查德射杀了侵入自己家中的陌生人。但是他不得不面对死者父亲的残忍报复。然而不久,敌对双方就发现事实并不像表面展现的那么简单,他们不得不联合起来面对黑暗的真相。

◎获奖情况

  第30届圣丹斯电影节 ?(2014)
  评审团大奖剧情片(提名) 吉姆·米可

Video
ID : 1
Format : AVC
Format/Info : Advanced Video Codec
Format profile : [email protected]
Format settings : CABAC / 5 Ref Frames
Format settings, CABAC : Yes
Format settings, Reference frames : 5 frames
Codec ID : V_MPEG4/ISO/AVC
Duration : 1 h 50 min
Bit rate : 8 446 kb/s
Width : 1 920 pixels
Height : 800 pixels
Display aspect ratio : 2.40:1
Frame rate mode : Constant
Frame rate : 23.976 (24000/1001/189150) FPS
Color space : YUV
Chroma subsampling : 4:2:0
Bit depth : 8 bits
Scan type : Progressive
Bits/(Pixel*Frame) : 0.229
Stream size : 6.34 GiB (83%)
Writing library : x264 core 142 r2479 dd79a61
Encoding settings : cabac=1 / ref=5 / deblock=1:-3:-3 / analyse=0x3:0x113 / me=umh / subme=8 / psy=1 / psy_rd=1.00:0.00 / mixed_ref=1 / me_range=16 / chroma_me=1 / trellis=1 / 8x8dct=1 / cqm=0 / deadzone=21,11 / fast_pskip=1 / chroma_qp_offset=-2 / threads=18 / lookahead_threads=3 / sliced_threads=0 / nr=0 / decimate=1 / interlaced=0 / bluray_compat=0 / constrained_intra=0 / bframes=3 / b_pyramid=2 / b_adapt=2 / b_bias=0 / direct=3 / weightb=1 / open_gop=0 / weightp=2 / keyint=240 / keyint_min=24 / scenecut=40 / intra_refresh=0 / rc_lookahead=50 / rc=2pass / mbtree=1 / bitrate=8446 / ratetol=1.0 / qcomp=0.60 / qpmin=0 / qpmax=69 / qpstep=4 / cplxblur=20.0 / qblur=0.5 / ip_ratio=1.40 / aq=1:1.00
Language : English
Default : Yes
Forced : No

Audio
ID : 2
Format : DTS
Format/Info : Digital Theater Systems
Codec ID : A_DTS
Duration : 1 h 50 min
Bit rate mode : Constant
Bit rate : 1 509 kb/s
Channel(s) : 6 channels
ChannelLayout_Original : C L R Ls Rs LFE
Sampling rate : 48.0 kHz
Frame rate : 93.750 FPS (512 SPF)
Bit depth : 24 bits
Compression mode : Lossy
Stream size : 1.16 GiB (15%)
Language : English
Default : Yes
Forced : No

Text #1
ID : 3
Format : UTF-8
Codec ID : S_TEXT/UTF8
Codec ID/Info : UTF-8 Plain Text
Title : SDH
Language : English
Default : No
Forced : No

Text #2
ID : 4
Format : UTF-8
Codec ID : S_TEXT/UTF8
Codec ID/Info : UTF-8 Plain Text
Language : English
Default : No
Forced : No

Menu
00:00:00.000 : en:00:00:00.000
00:07:02.881 : en:00:07:02.881
00:17:19.372 : en:00:17:19.372
00:26:53.737 : en:00:26:53.737
00:37:13.731 : en:00:37:13.731
00:44:20.950 : en:00:44:20.950
00:55:18.398 : en:00:55:18.398
01:04:46.091 : en:01:04:46.091
01:12:50.449 : en:01:12:50.449
01:22:56.555 : en:01:22:56.555
01:34:49.183 : en:01:34:49.183
01:45:44.505 : en:01:45:44.505





1 个附件 售价 大小 下载 时间

Cold.in.July.2014.LIMITED.1080p.BluRay.X264-AMIABLE.zip 0 金币 77.20K 343 次 1月前

#1楼
发帖时间:2020-11-24 10:03:17   |   回复数:0
游客组