travismk
一代宗师

[2013] [其他] [惊悚] [BD-1080P] 你躯体之泪的诡异颜色 The.Strange.Color.of.Your.Bodys.Tears.2013.FRENCH.1080p.BluRay.x264-H

-->

帖子完整标题:你躯体之泪的诡异颜色 The.Strange.Color.of.Your.Bodys.Tears.2013.FRENCH.1080p.BluRay.x264-HANDJOB 9.67GB



◎译  名 你躯体之泪的诡异颜色/The Strange Color of Your Body’s Tears
◎片  名 L'étrange couleur des larmes de ton corps
◎年  代 2013
◎产  地 比利时,法国,卢森堡
◎类  别 惊悚
◎语  言 法语
◎上映日期 2014-08-29(美国)
◎IMDb评分 6/10 from 3575 users
◎IMDb链接 https://www.imdb.com/title/tt2733258/
◎豆瓣评分 6.4/10 from 168 users
◎豆瓣链接 https://movie.douban.com/subject/23204773/
◎片  长 102分钟
◎导  演 伊莲娜·卡泰特 Hélène Cattet / 布鲁诺·福扎尼 Bruno Forzani
◎编  剧 伊莲娜·卡泰特 Hélène Cattet / 布鲁诺·福扎尼 Bruno Forzani
◎主  演 克劳斯·坦格 Klaus Tange
      汉斯·德·芒特 Hans de Munter

◎标  签 惊悚 | 法国 | 恐怖 | 比利时 | 法国电影 | 2013 | 卢森堡 | 比利時

◎简  介

  铅黄电影。有点实验性的Cult片,《安娜迷宫》的导演又给大家带来感官盛宴。怪奇公寓妇女失踪,墙后房间通往童年,礼盒爬出帽子刺客,壁纸起伏欲望隧道;时空循环自我谋杀,白发初恋听诊凶案,糖果夹杂玻璃碎片,爆头画皮血流满屋……

◎获奖情况

  第66届洛迦诺国际电影节 ?(2013)
  金豹奖(提名) 伊莲娜·卡泰特?/?布鲁诺·福扎尼

Video
ID : 1
Format : AVC
Format/Info : Advanced Video Codec
Format profile : [email protected]
Format settings : CABAC / 5 Ref Frames
Format settings, CABAC : Yes
Format settings, Reference frames : 5 frames
Codec ID : V_MPEG4/ISO/AVC
Duration : 1 h 41 min
Bit rate : 13.0 Mb/s
Width : 1 920 pixels
Height : 816 pixels
Display aspect ratio : 2.35:1
Frame rate mode : Constant
Frame rate : 23.976 (24000/1001/189150) FPS
Color space : YUV
Chroma subsampling : 4:2:0
Bit depth : 8 bits
Scan type : Progressive
Bits/(Pixel*Frame) : 0.346
Stream size : 9.21 GiB (95%)
Writing library : x264 core 142 r2455 021c0dc
Encoding settings : cabac=1 / ref=5 / deblock=1:-3:-3 / analyse=0x3:0x133 / me=umh / subme=11 / psy=1 / psy_rd=1,00:0,00 / mixed_ref=1 / me_range=24 / chroma_me=1 / trellis=2 / 8x8dct=1 / cqm=0 / deadzone=21,11 / fast_pskip=0 / chroma_qp_offset=-2 / threads=12 / lookahead_threads=1 / sliced_threads=0 / nr=0 / decimate=1 / interlaced=0 / bluray_compat=0 / constrained_intra=0 / bframes=6 / b_pyramid=2 / b_adapt=2 / b_bias=0 / direct=3 / weightb=1 / open_gop=0 / weightp=2 / keyint=240 / keyint_min=24 / scenecut=40 / intra_refresh=0 / rc_lookahead=50 / rc=crf / mbtree=1 / crf=18,0 / qcomp=0,60 / qpmin=0 / qpmax=69 / qpstep=4 / vbv_maxrate=62500 / vbv_bufsize=78125 / crf_max=0,0 / nal_hrd=none / filler=0 / ip_ratio=1,40 / aq=1:1,00
Default : Yes
Forced : No
Color range : Limited
Color primaries : BT.709
Transfer characteristics : BT.709
Matrix coefficients : BT.709

Audio
ID : 2
Format : AC-3
Format/Info : Audio Coding 3
Commercial name : Dolby Digital
Codec ID : A_AC3
Duration : 1 h 41 min
Bit rate mode : Constant
Bit rate : 640 kb/s
Channel(s) : 6 channels
Channel layout : L R C LFE Ls Rs
Sampling rate : 48.0 kHz
Frame rate : 31.250 FPS (1536 SPF)
Compression mode : Lossy
Delay relative to video : -83 ms
Stream size : 465 MiB (5%)
Title : French
Language : French
Service kind : Complete Main
Default : Yes
Forced : No

Text #1
ID : 3
Format : UTF-8
Codec ID : S_TEXT/UTF8
Codec ID/Info : UTF-8 Plain Text
Duration : 1 h 36 min
Bit rate : 12 b/s
Count of elements : 280
Stream size : 8.75 KiB (0%)
Title : English
Language : English
Default : Yes
Forced : No

Text #2
ID : 4
Format : UTF-8
Codec ID : S_TEXT/UTF8
Codec ID/Info : UTF-8 Plain Text
Duration : 1 h 36 min
Bit rate : 14 b/s
Count of elements : 286
Stream size : 10.2 KiB (0%)
Title : German
Language : German
Default : No
Forced : No

Text #3
ID : 5
Format : UTF-8
Codec ID : S_TEXT/UTF8
Codec ID/Info : UTF-8 Plain Text
Duration : 6 s 90 ms
Bit rate : 137 b/s
Count of elements : 2
Stream size : 105 Bytes (0%)
Title : French
Language : French
Default : No
Forced : No

Menu
00:00:00.000 : :Chapter 1
00:04:23.555 : :Chapter 2
00:07:57.519 : :Chapter 3
00:19:15.196 : :Chapter 4
00:22:52.580 : :Chapter 5
00:33:13.408 : :Chapter 6
00:36:49.207 : :Chapter 7
00:43:49.210 : :Chapter 8
00:53:35.629 : :Chapter 9
00:56:53.285 : :Chapter 10
01:05:06.986 : :Chapter 11
01:09:47.475 : :Chapter 12
01:18:24.617 : :Chapter 13
01:24:02.621 : :Chapter 14
01:28:39.606 : :Chapter 15
01:38:15.306 : :Chapter 16





1 个附件 售价 大小 下载 时间

The.Strange.Color.of.Your.Bodys.Tears.2013.FRENCH.1080p.BluRay.x264-HANDJOB.zip 0 金币 49.07K 336 次 2月前

#1楼
发帖时间:2020-11-24 09:03:00   |   回复数:0
游客组