travismk
一代宗师

[2014] [其他] [爱情] [BD-1080P] 回忆 Reminiscence.2017.JAPANESE.1080p.BluRay.x264-WiKi 9.75GB

-->

帖子完整标题:回忆 Reminiscence.2017.JAPANESE.1080p.BluRay.x264-WiKi 9.75GB



◎译  名 回忆
◎片  名 Reminiscence:The Beginning
◎年  代 2014
◎产  地 土耳其
◎类  别 爱情 / 惊悚 / 恐怖
◎语  言 英语
◎上映日期 2014-06-01(土耳其)
◎IMDb评分 5/10 from 915 users
◎IMDb链接 https://www.imdb.com/title/tt3036548/
◎豆瓣评分 /10 from 0 users
◎豆瓣链接 https://movie.douban.com/subject/26268815/
◎片  长 100分钟
◎导  演 Ak?ay Karaazmak
◎编  剧 Ak?ay Karaazmak

◎标  签 恐怖 | 惊悚 | 不走寻常路 | 睡意朦胧 | 土耳其电影 | 土耳其 | 国外电影 | 其他国家

◎简  介

  There are worlds, there are humans and there are Others. But there is only one Time which is the border between worlds. What if time breaks down? Reminiscence based on true events and physics, telling the story of a couple that trying to experiment the unproved parallel time and black-hole theories. They traveled to a town called Cesme for their research. But what they will face is much beyond the human mind.

Video
ID : 1
Format : AVC
Format/Info : Advanced Video Codec
Format profile : [email protected]
Format settings : CABAC / 4 Ref Frames
Format settings, CABAC : Yes
Format settings, ReFrames : 4 frames
Codec ID : V_MPEG4/ISO/AVC
Duration : 1 h 38 min
Bit rate : 13.5 Mb/s
Width : 1 920 pixels
Height : 1 038 pixels
Display aspect ratio : 1.85:1
Frame rate mode : Constant
Frame rate : 23.976 (24000/1001/189150) FPS
Color space : YUV
Chroma subsampling : 4:2:0
Bit depth : 8 bits
Scan type : Progressive
Bits/(Pixel*Frame) : 0.282
Stream size : 9.30 GiB (95%)
Writing library : x264 core 129 r2245+704+36 8e61944 tMod+MixAQ [[email protected]:2:0 X86_64]
Encoding settings : cabac=1 / ref=4 / deblock=1:-3:-3 / analyse=0x3:0x133 / me=umh / subme=11 / psy=1 / fade_compensate=0.00 / psy_rd=1.05:0.10 / mixed_ref=1 / me_range=64 / chroma_me=1 / trellis=2 / 8x8dct=1 / cqm=0 / deadzone=21,11 / fast_pskip=0 / chroma_qp_offset=-3 / threads=18 / lookahead_threads=3 / sliced_threads=0 / nr=0 / decimate=0 / interlaced=0 / bluray_compat=0 / constrained_intra=0 / fgo=0 / bframes=10 / b_pyramid=2 / b_adapt=2 / b_bias=0 / direct=3 / weightb=1 / open_gop=0 / weightp=2 / keyint=250 / keyint_min=23 / scenecut=40 / intra_refresh=0 / rc=2pass / mbtree=0 / bitrate=13492 / ratetol=1.0 / qcomp=0.70 / qpmin=0 / qpmax=69 / qpstep=4 / cplxblur=20.0 / qblur=0.5 / ip_ratio=1.40 / pb_ratio=1.30 / aq=1 / aq-strength=0.80 / aq-sensitivity=10.00 / aq-ifactor=1.00 / aq-pfactor=1.00 / aq-bfactor=1.00 / aq2=0
Language : Japanese
Default : Yes
Forced : No

Audio
ID : 2
Format : AC-3
Format/Info : Audio Coding 3
Codec ID : A_AC3
Duration : 1 h 38 min
Bit rate mode : Constant
Bit rate : 640 kb/s
Channel(s) : 6 channels
Channel positions : Front: L C R, Side: L R, LFE
Sampling rate : 48.0 kHz
Frame rate : 31.250 FPS (1536 SPF)
Bit depth : 16 bits
Compression mode : Lossy
Stream size : 452 MiB (5%)
Language : Japanese
Service kind : Complete Main
Default : Yes
Forced : No

Text #1
ID : 3
Format : ASS
Codec ID : S_TEXT/ASS
Codec ID/Info : Advanced Sub Station Alpha
Duration : 1 h 33 min
Bit rate : 58 b/s
Count of elements : 1004
Compression mode : Lossless
Stream size : 40.2 KiB (0%)
Title : Simplified
Language : Chinese
Default : Yes
Forced : No

Text #2
ID : 4
Format : ASS
Codec ID : S_TEXT/ASS
Codec ID/Info : Advanced Sub Station Alpha
Duration : 1 h 33 min
Bit rate : 58 b/s
Count of elements : 1003
Compression mode : Lossless
Stream size : 40.1 KiB (0%)
Title : Traditional
Language : Chinese
Default : No
Forced : No

Menu
00:00:00.000 : en:00:00:00.000
00:08:29.342 : en:00:08:29.342
00:12:07.601 : en:00:12:07.601
00:14:22.611 : en:00:14:22.611
00:15:48.238 : en:00:15:48.238
00:21:12.896 : en:00:21:12.896
00:27:19.012 : en:00:27:19.012
00:31:28.845 : en:00:31:28.845
00:34:06.210 : en:00:34:06.210
00:39:50.179 : en:00:39:50.179
00:46:09.725 : en:00:46:09.725
00:53:38.423 : en:00:53:38.423
00:58:52.028 : en:00:58:52.028
01:04:26.320 : en:01:04:26.320
01:06:02.750 : en:01:06:02.750
01:09:12.231 : en:01:09:12.231
01:13:42.876 : en:01:13:42.876
01:19:00.902 : en:01:19:00.902
01:22:39.788 : en:01:22:39.788
01:30:45.147 : en:01:30:45.147
01:38:40.247 : en:01:38:40.247





1 个附件 售价 大小 下载 时间

Reminiscence.2017.JAPANESE.1080p.BluRay.x264-WiKi.zip 0 金币 98.20K 133 次 1月前

#1楼
发帖时间:2020-11-23 09:01:30   |   回复数:0
游客组