travismk
一代宗师

[2009] [欧美] [喜剧] [WEB-1080P] 无性难欢 Everybody.Is.Having.Sex.But.Ryan.2009.1080p.AMZN.WEBRip.DDP2.0.x264-tobias

-->

帖子完整标题:无性难欢 Everybody.Is.Having.Sex.But.Ryan.2009.1080p.AMZN.WEBRip.DDP2.0.x264-tobias 998.80MB



◎译  名 无性难欢
◎片  名 Everybody Is Having Sex... But Ryan
◎年  代 2009
◎产  地 美国
◎类  别 喜剧 / 爱情 / 短片
◎语  言 英语
◎上映日期 2009
◎IMDb评分 4.6/10 from 71 users
◎IMDb链接 https://www.imdb.com/title/tt1494703/
◎豆瓣评分 4.9/10 from 178 users
◎豆瓣链接 https://movie.douban.com/subject/5165081/
◎片  长 14分钟
◎主  演 杰瑞米·卢卡斯 Jeremy Lucas

◎标  签 短片 | 同性 | 美国 | 同志 | 喜剧 | GAY | 爱情 | 2009

◎简  介

  暂无相关剧情介绍

Video
ID : 1
Format : AVC
Format/Info : Advanced Video Codec
Format profile : [email protected]
Format settings : CABAC / 4 Ref Frames
Format settings, CABAC : Yes
Format settings, Reference frames : 4 frames
Codec ID : V_MPEG4/ISO/AVC
Duration : 13 min 42 s
Bit rate mode : Constant
Bit rate : 10 000 kb/s
Width : 1 920 pixels
Height : 1 080 pixels
Display aspect ratio : 16:9
Frame rate mode : Constant
Frame rate : 29.970 (30000/1001/189150) FPS
Standard : NTSC
Color space : YUV
Chroma subsampling : 4:2:0
Bit depth : 8 bits
Scan type : Progressive
Bits/(Pixel*Frame) : 0.161
Stream size : 977 MiB (98%)
Default : Yes
Forced : No
Color range : Limited
Color primaries : BT.709
Transfer characteristics : BT.709
Matrix coefficients : BT.709

Audio
ID : 2
Format : E-AC-3
Format/Info : Enhanced AC-3
Commercial name : Dolby Digital Plus
Codec ID : A_EAC3
Duration : 13 min 42 s
Bit rate mode : Constant
Bit rate : 224 kb/s
Channel(s) : 2 channels
Channel layout : L R
Sampling rate : 48.0 kHz
Frame rate : 31.250 FPS (1536 SPF)
Compression mode : Lossy
Stream size : 22.0 MiB (2%)
Title : English
Language : English
Service kind : Complete Main
Default : Yes
Forced : No

Text
ID : 3
Format : UTF-8
Codec ID : S_TEXT/UTF8
Codec ID/Info : UTF-8 Plain Text
Duration : 13 min 31 s
Bit rate : 77 b/s
Count of elements : 272
Stream size : 7.70 KiB (0%)
Title : English [Full]
Language : English
Default : No
Forced : No





1 个附件 售价 大小 下载 时间

Everybody.Is.Having.Sex.But.Ryan.2009.1080p.AMZN.WEBRip.DDP2.0.x264-tobias.zip 0 金币 20.23K 399 次 1天前

#1楼
发帖时间:2020-11-22 19:38:03   |   回复数:0
游客组