travismk
一代宗师

[2019] [欧美] [剧情] [WEB-1080P] 画家的妻子/画家之妻 艺术家的妻子 The.Artists.Wife.2019.1080p.WEB-DL.DD5.1.H264-FGT 3.35GB

-->

帖子完整标题:画家的妻子/画家之妻 艺术家的妻子 The.Artists.Wife.2019.1080p.WEB-DL.DD5.1.H264-FGT 3.35GB



◎译  名 画家的妻子/画家之妻 艺术家的妻子
◎片  名 The Artist's Wife
◎年  代 2019
◎产  地 美国
◎类  别 剧情
◎语  言 英语
◎上映日期 
◎IMDb评分 6.9/10 from 59 users
◎IMDb链接 https://www.imdb.com/title/tt5806558/
◎豆瓣评分 /10 from 0 users
◎豆瓣链接 https://movie.douban.com/subject/30191761/
◎导  演 汤姆·杜比 Tom Dolby
◎编  剧 汤姆·杜比 Tom Dolby
◎主  演 阿万·乔贾 Avan Jogia
      布鲁斯·邓恩 Bruce Dern
      莉娜·奥琳 Lena Olin
      亚历山卓·巴格特 Alexandre Bagot

◎标  签 美国 | 美国电影 | 剧情 | 2020

◎简  介

  A drama about Claire Smythson, wife of a famous painter, who struggles to reunite her husband with his estranged daughter when he is diagnosed with dementia.

Video
ID : 1
Format : AVC
Format/Info : Advanced Video Codec
Format profile : [email protected]
Format settings : CABAC / 5 Ref Frames
Format settings, CABAC : Yes
Format settings, Reference frames : 5 frames
Codec ID : V_MPEG4/ISO/AVC
Duration : 1 h 36 min
Bit rate : 4 594 kb/s
Width : 1 920 pixels
Height : 788 pixels
Display aspect ratio : 2.40:1
Frame rate mode : Constant
Frame rate : 23.976 (24000/1001/189150) FPS
Color space : YUV
Chroma subsampling : 4:2:0
Bit depth : 8 bits
Scan type : Progressive
Bits/(Pixel*Frame) : 0.127
Stream size : 3.09 GiB (92%)
Title : The.Artists.Wife.2019.1080p.WEB-DL.DD5.1.H.264-FGT
Language : English
Default : Yes
Forced : No
Color range : Limited
Color primaries : BT.709
Transfer characteristics : BT.709
Matrix coefficients : BT.709

Audio
ID : 2
Format : AC-3
Format/Info : Audio Coding 3
Commercial name : Dolby Digital
Codec ID : A_AC3
Duration : 1 h 36 min
Bit rate mode : Constant
Bit rate : 384 kb/s
Channel(s) : 6 channels
Channel layout : L R C LFE Ls Rs
Sampling rate : 48.0 kHz
Frame rate : 31.250 FPS (1536 SPF)
Compression mode : Lossy
Stream size : 264 MiB (8%)
Title : The.Artists.Wife.2019.1080p.WEB-DL.DD5.1.H.264-FGT
Language : English
Service kind : Complete Main
Default : Yes
Forced : No

Text
ID : 3
Format : UTF-8
Codec ID : S_TEXT/UTF8
Codec ID/Info : UTF-8 Plain Text
Duration : 1 h 29 min
Bit rate : 49 b/s
Count of elements : 1309
Stream size : 32.4 KiB (0%)
Language : English
Default : Yes
Forced : No





1 个附件 售价 大小 下载 时间

The.Artists.Wife.2019.1080p.WEB-DL.DD5.1.H264-FGT.zip 0 金币 34.10K 189 次 1天前

#1楼
发帖时间:2020-11-22 18:32:48   |   回复数:0
游客组