travismk
一代宗师

[更 早] [欧美] [喜剧] [WEB-1080P] 相伴到永远 The.Favor.1994.1080p.AMZN.WEBRip.DDP2.0.x264-PLISSKEN 5.88GB

-->

帖子完整标题:相伴到永远 The.Favor.1994.1080p.AMZN.WEBRip.DDP2.0.x264-PLISSKEN 5.88GB



◎译  名 相伴到永远
◎片  名 The Favor
◎年  代 1994
◎产  地 美国
◎类  别 喜剧 / 爱情
◎语  言 英语
◎上映日期 1994-04-29
◎IMDb评分 5.2/10 from 2576 users
◎IMDb链接 https://www.imdb.com/title/tt0109783/
◎豆瓣评分 /10 from 0 users
◎豆瓣链接 https://movie.douban.com/subject/1294623/
◎片  长 97 分钟
◎导  演 唐纳德·佩特瑞 Donald Petrie
◎主  演 哈莉·简·科扎克 Harley Jane Kozak
      伊丽莎白·麦戈文 Elizabeth McGovern
      比尔·普尔曼 Bill Pullman
      布拉德·皮特 Brad Pitt
      拉里·米勒 Larry Miller
      肯·沃尔 Ken Wahl
      金杰·奥尔西 Ginger Orsi
      莉·安·奥尔西 Leigh Ann Orsi
      约翰·霍恩 John Horn
      卡尔·金 Carl King
      罗伯特·比赫莱尔 Robert Biheller
      盖瑞·波维尔 Gary Powell
      穆特里·帕滕 Moultrie Patten
      乔尔·比森 Joel Beeson
      金·沃克 Kim Walker
      克莱尔·斯坦斯菲尔德 Claire Stansfield
      澳澜·琼斯 O-Lan Jones
      明迪·斯特林 Mindy Sterling
      乔丹·克里斯托弗·迈克尔 Jordan Christopher Michael
      霍兰德·泰勒 Holland Taylor
      黛博拉·怀特 Deborah White

◎标  签 BradPitt | 美国 | 爱情 | 布拉德·皮特 | 美国电影 | 美國 | 我的电影5 | T

◎简  介

  Kathy is married to Peter. Now she can't help but wonder how things could have been if she got together with her old boyfriend, Tom. Being married prevents from doing that so she asks her friend, Emily to go to him and see if she can sleep with him then tell Kathy how it was. When Emily tells Kathy that things were awesome, their friendship suffers, at the same so does Kathy's marriage. Things get even more complicated when Emily learns she's pregnant, and she's not certain if it's Tom's or her boyfriend, Elliot.

Video
ID : 1
Format : AVC
Format/Info : Advanced Video Codec
Format profile : [email protected]
Format settings : CABAC / 4 Ref Frames
Format settings, CABAC : Yes
Format settings, Reference frames : 4 frames
Codec ID : V_MPEG4/ISO/AVC
Duration : 1 h 37 min
Bit rate : 8 380 kb/s
Width : 1 920 pixels
Height : 1 080 pixels
Display aspect ratio : 16:9
Frame rate mode : Constant
Frame rate : 23.976 (24000/1001/189150) FPS
Color space : YUV
Chroma subsampling : 4:2:0
Bit depth : 8 bits
Scan type : Progressive
Bits/(Pixel*Frame) : 0.169
Stream size : 5.72 GiB (97%)
Default : Yes
Forced : No
Color range : Limited
Color primaries : BT.709
Transfer characteristics : BT.709
Matrix coefficients : BT.709

Audio
ID : 2
Format : E-AC-3
Format/Info : Enhanced AC-3
Commercial name : Dolby Digital Plus
Codec ID : A_EAC3
Duration : 1 h 37 min
Bit rate mode : Constant
Bit rate : 224 kb/s
Channel(s) : 2 channels
Channel layout : L R
Sampling rate : 48.0 kHz
Frame rate : 31.250 FPS (1536 SPF)
Compression mode : Lossy
Stream size : 157 MiB (3%)
Language : English
Service kind : Complete Main
Default : Yes
Forced : No

Text
ID : 3
Format : UTF-8
Codec ID : S_TEXT/UTF8
Codec ID/Info : UTF-8 Plain Text
Duration : 1 h 35 min
Bit rate : 69 b/s
Count of elements : 1739
Stream size : 48.4 KiB (0%)
Language : English
Default : No
Forced : No





1 个附件 售价 大小 下载 时间

The.Favor.1994.1080p.AMZN.WEBRip.DDP2.0.x264-PLISSKEN.zip 0 金币 30.05K 119 次 2天前

#1楼
发帖时间:2020-11-22 09:40:34   |   回复数:0
游客组