fg603603
武林盟主

[2009] [其他] [剧情] [BD-1080P] 狂暴 Rampage.2009.UNCUT.1080p.BluRay.x264.DTS-FGT 8.79GB

-->

帖子完整标题:狂暴 Rampage.2009.UNCUT.1080p.BluRay.x264.DTS-FGT 8.79GB



◎译  名 狂暴
◎片  名 Rampage
◎年  代 2009
◎产  地 加拿大
◎类  别 剧情 / 动作 / 惊悚 / 犯罪
◎语  言 英语
◎上映日期 2009-08-14
◎IMDb评分 6.2/10 from 18061 users
◎IMDb链接 https://www.imdb.com/title/tt1337057/
◎豆瓣评分 6.4/10 from 2058 users
◎豆瓣链接 https://movie.douban.com/subject/3364849/
◎片  长 85 分钟
◎导  演 乌维·鲍尔 Uwe Boll
◎编  剧 乌维·鲍尔 Uwe Boll
◎主  演 布莱登·佛雷切 Brendan Fletcher
      凯瑟琳·伊莎贝尔 Katharine Isabelle
      肖恩·西珀斯 Shaun Sipos
      罗伯特·克拉克 Robert Clarke
      琳达·博伊德 Lynda Boyd
      马尔科姆·斯图尔特 Malcolm Stewart
      马特·弗里沃 Matt Frewer
      迈克尔·帕尔 Michael Paré

◎标  签 犯罪 | 暴力 | 反社会 | 加拿大 | 屠杀 | 血腥 | 人性 | 2009

◎简  介

  一个充满了报复心的人,用牢固的Kevlar合成纤维为自己打造了全身盔甲,开始了一场杀人狂欢。

Video
ID : 1
Format : AVC
Format/Info : Advanced Video Codec
Format profile : [email protected]
Format settings, CABAC : Yes
Format settings, ReFrames : 5 frames
Codec ID : V_MPEG4/ISO/AVC
Duration : 1 h 24 min
Bit rate : 13.1 Mb/s
Width : 1 920 pixels
Height : 800 pixels
Display aspect ratio : 2.40:1
Frame rate mode : Constant
Frame rate : 23.976 (24000/1001/189150) FPS
Color space : YUV
Chroma subsampling : 4:2:0
Bit depth : 8 bits
Scan type : Progressive
Bits/(Pixel*Frame) : 0.355
Stream size : 7.72 GiB (88%)
Writing library : x264 core 130 r2273 b3065e6
Encoding settings : cabac=1 / ref=5 / deblock=1:-3:-3 / analyse=0x3:0x133 / me=umh / subme=11 / psy=1 / psy_rd=1.00:0.15 / mixed_ref=1 / me_range=32 / chroma_me=1 / trellis=2 / 8x8dct=1 / cqm=0 / deadzone=21,11 / fast_pskip=0 / chroma_qp_offset=-3 / threads=12 / lookahead_threads=2 / sliced_threads=0 / nr=0 / decimate=1 / interlaced=0 / bluray_compat=0 / constrained_intra=0 / bframes=8 / b_pyramid=2 / b_adapt=2 / b_bias=0 / direct=3 / weightb=1 / open_gop=0 / weightp=2 / keyint=240 / keyint_min=24 / scenecut=40 / intra_refresh=0 / rc_lookahead=180 / rc=crf / mbtree=1 / crf=18.8 / qcomp=0.60 / qpmin=0 / qpmax=69 / qpstep=4 / vbv_maxrate=25000 / vbv_bufsize=50000 / crf_max=0.0 / nal_hrd=none / ip_ratio=1.40 / aq=1:1.00
Language : English
Default : Yes
Forced : No
Color range : Limited
Color primaries : BT.709
Transfer characteristics : BT.709
Matrix coefficients : BT.709

Audio
ID : 2
Format : DTS
Format/Info : Digital Theater Systems
Mode : 16
Format settings, Endianness : Big
Codec ID : A_DTS
Duration : 1 h 24 min
Bit rate mode : Constant
Bit rate : 1 509 kb/s
Channel(s) : 6 channels
Channel positions : Front: L C R, Side: L R, LFE
Sampling rate : 48.0 kHz
Frame rate : 93.750 FPS (512 spf)
Bit depth : 24 bits
Compression mode : Lossy
Stream size : 914 MiB (10%)
Language : English
Default : No
Forced : No

Text #1
ID : 3
Format : UTF-8
Codec ID : S_TEXT/UTF8
Codec ID/Info : UTF-8 Plain Text
Language : English
Default : No
Forced : No

Text #2
ID : 4
Format : UTF-8
Codec ID : S_TEXT/UTF8
Codec ID/Info : UTF-8 Plain Text
Language : Spanish
Default : No
Forced : No

Menu
00:00:00.000 : en:00:00:00.000
00:07:50.344 : en:00:07:50.344
00:14:41.255 : en:00:14:41.255
00:21:46.638 : en:00:21:46.638
00:29:49.287 : en:00:29:49.287
00:40:48.696 : en:00:40:48.696
00:46:14.480 : en:00:46:14.480
00:54:36.189 : en:00:54:36.189
01:00:48.686 : en:01:00:48.686
01:06:55.511 : en:01:06:55.511
01:13:14.515 : en:01:13:14.515
01:17:52.876 : en:01:17:52.876





1 个附件 售价 大小 下载 时间

Rampage.2009.UNCUT.1080p.BluRay.x264.DTS-FGT.zip 0 金币 88.54K 182 次 2天前

#1楼
发帖时间:2020-11-22 09:35:42   |   回复数:0
游客组