travismk
一代宗师

[2013] [其他] [喜剧] [BD-1080P] 谁杀了斑比?/谁杀了小鹿斑比? Quien.mato.a.Bambi.2013.SPANISH.1080p.BluRay.x264-HANDJOB 7.60GB

-->

帖子完整标题:谁杀了斑比?/谁杀了小鹿斑比? Quien.mato.a.Bambi.2013.SPANISH.1080p.BluRay.x264-HANDJOB 7.60GB



◎译  名 谁杀了斑比?/谁杀了小鹿斑比?
◎片  名 ?Quién mató a Bambi?
◎年  代 2013
◎产  地 西班牙
◎类  别 喜剧 / 犯罪
◎语  言 西班牙语
◎上映日期 2013-10-25
◎IMDb评分 5.6/10 from 1154 users
◎IMDb链接 https://www.imdb.com/title/tt2604346/
◎豆瓣评分 6.7/10 from 362 users
◎豆瓣链接 https://movie.douban.com/subject/21663500/
◎片  长 90分钟
◎导  演 Santi Amodeo
◎编  剧 Santi Amodeo
◎主  演 克拉拉·拉戈 Clara Lago
      胡里安·毕亚格兰 Julián Villagrán
      Joaquín Nú?ez
      基姆·古铁雷斯 Quim Gutiérrez
      安德列斯·伊涅斯塔·卢扬 Andrés Iniesta Luján
      欧内斯特·艾戴里欧 Ernesto Alterio
      卡米娜·巴利奥斯 Carmina Barrios

◎标  签 西班牙 | 喜剧 | 黑色幽默 | 西班牙电影 | 2013 | 犯罪 | 狗血 | 电影

◎简  介

  一对死党护送公司老板,亦即其中一人的老爸回家,却在汽车后备箱发现意料外的突发状况;另一方面,一名商人与他的合作伙伴为解决债务问题决定实施一场绑架,不幸的是阴差阳错之下绑架了自己的父亲。一系列乌龙事件将素不相识的两方牵扯到一起……

Video
ID : 1
Format : AVC
Format/Info : Advanced Video Codec
Format profile : [email protected]
Format settings : CABAC / 5 Ref Frames
Format settings, CABAC : Yes
Format settings, Reference frames : 5 frames
Codec ID : V_MPEG4/ISO/AVC
Duration : 1 h 29 min
Bit rate : 11.5 Mb/s
Width : 1 920 pixels
Height : 816 pixels
Display aspect ratio : 2.35:1
Frame rate mode : Constant
Frame rate : 24.000 FPS
Color space : YUV
Chroma subsampling : 4:2:0
Bit depth : 8 bits
Scan type : Progressive
Bits/(Pixel*Frame) : 0.306
Stream size : 7.19 GiB (95%)
Writing library : x264 core 157 r2935 545de2f
Encoding settings : cabac=1 / ref=5 / deblock=1:-3:-3 / analyse=0x3:0x133 / me=umh / subme=10 / psy=1 / psy_rd=1.00:0.00 / mixed_ref=1 / me_range=32 / chroma_me=1 / trellis=2 / 8x8dct=1 / cqm=0 / deadzone=21,11 / fast_pskip=0 / chroma_qp_offset=-2 / threads=25 / lookahead_threads=2 / sliced_threads=0 / nr=0 / decimate=0 / interlaced=0 / bluray_compat=0 / constrained_intra=0 / bframes=6 / b_pyramid=2 / b_adapt=2 / b_bias=0 / direct=3 / weightb=1 / open_gop=0 / weightp=2 / keyint=240 / keyint_min=24 / scenecut=40 / intra_refresh=0 / rc_lookahead=60 / rc=crf / mbtree=0 / crf=16.6 / qcomp=0.60 / qpmin=0 / qpmax=69 / qpstep=4 / vbv_maxrate=62500 / vbv_bufsize=78125 / crf_max=0.0 / nal_hrd=none / filler=0 / ip_ratio=1.40 / pb_ratio=1.30 / aq=2:1.00
Default : Yes
Forced : No
Color range : Limited
Color primaries : BT.709
Transfer characteristics : BT.709
Matrix coefficients : BT.709

Audio
ID : 2
Format : AC-3
Format/Info : Audio Coding 3
Commercial name : Dolby Digital
Codec ID : A_AC3
Duration : 1 h 29 min
Bit rate mode : Constant
Bit rate : 640 kb/s
Channel(s) : 6 channels
Channel layout : L R C LFE Ls Rs
Sampling rate : 48.0 kHz
Frame rate : 31.250 FPS (1536 SPF)
Compression mode : Lossy
Stream size : 411 MiB (5%)
Language : Spanish
Service kind : Complete Main
Default : Yes
Forced : No

Text #1
ID : 3
Format : UTF-8
Codec ID : S_TEXT/UTF8
Codec ID/Info : UTF-8 Plain Text
Duration : 1 h 23 min
Bit rate : 45 b/s
Count of elements : 916
Stream size : 27.8 KiB (0%)
Language : English
Default : Yes
Forced : No

Text #2
ID : 4
Format : PGS
Muxing mode : zlib
Codec ID : S_HDMV/PGS
Codec ID/Info : Picture based subtitle format used on BDs/HD-DVDs
Duration : 1 h 24 min
Bit rate : 40.5 kb/s
Count of elements : 2312
Stream size : 24.4 MiB (0%)
Language : Spanish
Default : No
Forced : No

Menu
00:00:00.000 : :Chapter 01
00:07:33.667 : :Chapter 02
00:14:54.292 : :Chapter 03
00:21:35.833 : :Chapter 04
00:30:27.000 : :Chapter 05
00:37:29.417 : :Chapter 06
00:44:50.375 : :Chapter 07
00:52:06.958 : :Chapter 08
00:58:40.958 : :Chapter 09
01:07:37.625 : :Chapter 10
01:13:49.208 : :Chapter 11
01:22:45.958 : :Chapter 12





1 个附件 售价 大小 下载 时间

Quien.mato.a.Bambi.2013.SPANISH.1080p.BluRay.x264-HANDJOB.zip 0 金币 38.70K 329 次 2月前

#1楼
发帖时间:2020-11-21 13:05:55   |   回复数:0
游客组