travismk
一代宗师

[2020] [欧美] [其他] [BD-4K] 逃跑/疑·妈 Run.2020.2160p.HULU.WEBRip.x265.10bit.SDR.DDP5.1-CM 9.74GB

-->

帖子完整标题:逃跑/疑·妈 Run.2020.2160p.HULU.WEBRip.x265.10bit.SDR.DDP5.1-CM 9.74GB



◎译  名 逃跑/疑·妈(港)/跑/逃(台)
◎片  名 Run
◎年  代 2020
◎产  地 美国
◎类  别 悬疑 / 惊悚 / 恐怖
◎语  言 英语
◎上映日期 2020-11-20(美国网络)
◎IMDb评分 7.8/10 from 97 users
◎IMDb链接 https://www.imdb.com/title/tt8633478/
◎豆瓣评分 /10 from 0 users
◎豆瓣链接 https://movie.douban.com/subject/30243396/
◎片  长 90分钟
◎导  演 阿尼什·查甘蒂 Aneesh Chaganty
◎编  剧 阿尼什·查甘蒂 Aneesh Chaganty / 赛弗·奥哈尼安 Sev Ohanian
◎主  演 莎拉·保罗森 Sarah Paulson
      基拉·艾伦 Kiera Allen
      帕特·希利 Pat Healy
      埃里克·阿塔瓦尔 Erik Athavale
      布拉德利·索茨基 Bradley Sawatzky
      奥娜莉·艾姆斯 Onalee Ames
      德里克·詹姆斯·特拉普 Derek James Trapp

◎标  签 惊悚 | 悬疑 | 恐怖 | 美国 | 莎拉·保罗森 | 2020 | 犯罪 | 美国电影

◎简  介

  该片讲述莎拉饰演的母亲独自抚养着女儿(帕特饰),当女儿得知了母亲罪恶的秘密,她们的生活开始瓦解。

Video
ID : 1
Format : HEVC
Format/Info : High Efficiency Video Coding
Format profile : Main [email protected]@Main
Codec ID : V_MPEGH/ISO/HEVC
Duration : 1 h 29 min
Bit rate : 15.3 Mb/s
Width : 3 840 pixels
Height : 2 160 pixels
Display aspect ratio : 16:9
Frame rate mode : Constant
Frame rate : 23.976 (24000/1001/189150) FPS
Color space : YUV
Chroma subsampling : 4:2:0
Bit depth : 10 bits
Bits/(Pixel*Frame) : 0.077
Stream size : 9.58 GiB (98%)
Default : Yes
Forced : No

Audio
ID : 2
Format : E-AC-3
Format/Info : Enhanced AC-3
Commercial name : Dolby Digital Plus
Codec ID : A_EAC3
Duration : 1 h 29 min
Bit rate mode : Constant
Bit rate : 256 kb/s
Channel(s) : 6 channels
Channel layout : L R C LFE Ls Rs
Sampling rate : 48.0 kHz
Frame rate : 31.250 FPS (1536 SPF)
Compression mode : Lossy
Stream size : 164 MiB (2%)
Title : English
Language : English
Service kind : Complete Main
Default : No
Forced : No

Text #1
ID : 3
Format : UTF-8
Codec ID : S_TEXT/UTF8
Codec ID/Info : UTF-8 Plain Text
Duration : 1 h 24 min
Bit rate : 27 b/s
Count of elements : 645
Stream size : 17.1 KiB (0%)
Title : English
Language : English
Default : No
Forced : No

Text #2
ID : 4
Format : UTF-8
Codec ID : S_TEXT/UTF8
Codec ID/Info : UTF-8 Plain Text
Duration : 1 h 24 min
Bit rate : 28 b/s
Count of elements : 705
Stream size : 17.4 KiB (0%)
Title : Spanish
Language : Spanish
Default : No
Forced : No





1 个附件 售价 大小 下载 时间

Run.2020.2160p.HULU.WEBRip.x265.10bit.SDR.DDP5.1-CM.zip 0 金币 49.39K 2933 次 1月前

#1楼
发帖时间:2020-11-20 14:23:07   |   回复数:2
liyouchai
隐世仙人♂
谢谢楼主分享资源
1月前 #2楼
kola13
武林盟主
感谢分享
26天前 #3楼
游客组