q3r3
武林盟主

[2013] [其他] [喜剧] [BD-1080P] 你好Quo! Bula.Quo.2013.1080p.BluRay.x264.DTS-FGT 5.55GB

-->

帖子完整标题:你好Quo! Bula.Quo.2013.1080p.BluRay.x264.DTS-FGT 5.55GB



◎译  名 你好Quo!
◎片  名 Bula Quo!
◎年  代 2013
◎产  地 英国,斐济
◎类  别 喜剧 / 动作 / 冒险
◎语  言 英语
◎上映日期 2013-06-05(英国)
◎IMDb评分 3.8/10 from 287 users
◎IMDb链接 https://www.imdb.com/title/tt2363115/
◎豆瓣评分 /10 from 0 users
◎豆瓣链接 https://movie.douban.com/subject/24859721/
◎主  演 乔恩·拉威茨 Jon Lovitz
      克雷格·法布拉斯 Craig Fairbrass
      劳拉·艾克曼 Laura Aikman
      Francis Rossi
      Rick Parfitt
      Matt Kennard

◎标  签 美国电影 | Music | Crime | Comedy

◎简  介

  暂无相关剧情介绍

Video
ID : 1
Format : AVC
Format/Info : Advanced Video Codec
Format profile : [email protected]
Format settings, CABAC : Yes
Format settings, ReFrames : 5 frames
Codec ID : V_MPEG4/ISO/AVC
Duration : 1h 30mn
Bit rate : 7 101 Kbps
Width : 1 920 pixels
Height : 800 pixels
Display aspect ratio : 2.40:1
Frame rate mode : Constant
Frame rate : 24.000 fps
Color space : YUV
Chroma subsampling : 4:2:0
Bit depth : 8 bits
Scan type : Progressive
Bits/(Pixel*Frame) : 0.193
Stream size : 4.49 GiB (81%)
Writing library : x264 core 140 r2377 1ca7bb9
Encoding settings : cabac=1 / ref=5 / deblock=1:-1:-1 / analyse=0x3:0x113 / me=umh / subme=7 / psy=1 / psy_rd=1.00:0.15 / mixed_ref=1 / me_range=16 / chroma_me=1 / trellis=1 / 8x8dct=1 / cqm=0 / deadzone=21,11 / fast_pskip=0 / chroma_qp_offset=-3 / threads=18 / lookahead_threads=3 / sliced_threads=0 / nr=0 / decimate=1 / interlaced=0 / bluray_compat=0 / constrained_intra=0 / bframes=3 / b_pyramid=2 / b_adapt=1 / b_bias=0 / direct=1 / weightb=1 / open_gop=0 / weightp=2 / keyint=250 / keyint_min=24 / scenecut=40 / intra_refresh=0 / rc_lookahead=40 / rc=crf / mbtree=1 / crf=20.0 / qcomp=0.60 / qpmin=0 / qpmax=69 / qpstep=4 / ip_ratio=1.40 / aq=1:1.00
Language : English
Default : Yes
Forced : No

Audio
ID : 2
Format : DTS
Format/Info : Digital Theater Systems
Mode : 16
Format settings, Endianness : Big
Codec ID : A_DTS
Duration : 1h 30mn
Bit rate mode : Constant
Bit rate : 1 509 Kbps
Channel(s) : 6 channels
Channel positions : Front: L C R, Side: L R, LFE
Sampling rate : 48.0 KHz
Frame rate : 93.750 fps (512 spf)
Bit depth : 24 bits
Compression mode : Lossy
Stream size : 977 MiB (17%)
Language : English
Default : No
Forced : No





1 个附件 售价 大小 下载 时间

Bula.Quo.2013.1080p.BluRay.x264.DTS-FGT.zip 0 金币 56.17K 196 次 2月前

#1楼
发帖时间:2020-11-20 09:48:02   |   回复数:0
游客组