travismk
一代宗师

[更 早] [其他] [爱情] [BD-4K] 美国狼人在伦敦/鬼追人 An.American.Werewolf.in.London.1981.2160p.BluRay.x264.8bit.SDR.DTS-H

-->

帖子完整标题:美国狼人在伦敦/鬼追人 An.American.Werewolf.in.London.1981.2160p.BluRay.x264.8bit.SDR.DTS-HD.MA.5.1-SWTYBLZ 40.41GB



◎译  名 美国狼人在伦敦/鬼追人
◎片  名 An American Werewolf in London
◎年  代 1981
◎产  地 美国,英国
◎类  别 爱情 / 恐怖
◎语  言 英语
◎上映日期 1981-08-21
◎IMDb评分 7.5/10 from 91541 users
◎IMDb链接 https://www.imdb.com/title/tt0082010/
◎豆瓣评分 7.0/10 from 1984 users
◎豆瓣链接 https://movie.douban.com/subject/1295077/
◎片  长 97 分钟
◎导  演 约翰·兰迪斯 John Landis
◎编  剧 约翰·兰迪斯 John Landis
◎主  演 大卫·诺顿 David Naughton
      珍妮·艾加特 Jenny Agutter
      格里芬·邓恩 Griffin Dunne
      约翰·伍德温 John Woodvine
      莉拉·凯 Lila Kaye
      保罗·肯伯 Paul Kember
      Don McKillop

◎标  签 恐怖 | 美国 | 惊悚 | Cult | 1981 | 美国电影 | 英国 | 1980s

◎简  介

  来自美国的杰克(格里芬·邓恩 Griffin Dunne 饰)和戴维(大卫·诺顿 David Naughton 饰)是一对经常结伴出游的好友,一次意外中,他们在位于英格兰的一篇沼泽里遭到了可怕的狼人的袭击,杰克当场死亡,戴维负伤。住在附近小镇里的村民们救了戴维,并为他提供了养伤的住所。
  
  自从受伤以来,杰克频频出现在戴维的幻觉之中,杰克告诉戴维,戴维已经有了狼人的血统,为了避免伤及无辜,杰克鼓动戴维尽早的结束自己的生命。果不其然,月圆之夜的隔天清晨,几句尸体的出现让小镇陷入了恐慌之中,只有杰克明白,自己是这一切的罪魁祸首。杰克想要自首,可小镇上没有人愿意相信他。

◎获奖情况

  第54届奥斯卡金像奖 ?(1982)
  最佳化妆 里克·贝克

Video
ID : 1
Format : AVC
Format/Info : Advanced Video Codec
Format profile : [email protected]
Format settings : CABAC / 5 Ref Frames
Format settings, CABAC : Yes
Format settings, Reference frames : 5 frames
Codec ID : V_MPEG4/ISO/AVC
Duration : 1 h 37 min
Bit rate : 56.1 Mb/s
Width : 3 840 pixels
Height : 2 076 pixels
Display aspect ratio : 1.85:1
Frame rate mode : Constant
Frame rate : 23.976 (24000/1001/189150) FPS
Color space : YUV
Chroma subsampling : 4:2:0
Bit depth : 8 bits
Scan type : Progressive
Bits/(Pixel*Frame) : 0.293
Stream size : 38.1 GiB (95%)
Title : An.American.Werewolf.in.London.1981.2160p.BluRay.x264.8bit.SDR.DTS-HD.MA.5.1-SWTYBLZ
Writing library : x264 core 157 r2935 545de2f
Encoding settings : cabac=1 / ref=5 / deblock=1:-1:-1 / analyse=0x3:0x113 / me=umh / subme=10 / psy=1 / psy_rd=1.00:0.15 / mixed_ref=1 / me_range=48 / chroma_me=1 / trellis=2 / 8x8dct=1 / cqm=0 / deadzone=21,11 / fast_pskip=1 / chroma_qp_offset=-3 / threads=48 / lookahead_threads=4 / sliced_threads=0 / nr=0 / decimate=0 / interlaced=0 / bluray_compat=0 / constrained_intra=0 / bframes=3 / b_pyramid=2 / b_adapt=2 / b_bias=0 / direct=3 / weightb=1 / open_gop=0 / weightp=2 / keyint=250 / keyint_min=23 / scenecut=40 / intra_refresh=0 / rc_lookahead=50 / rc=crf / mbtree=1 / crf=22.0 / qcomp=0.60 / qpmin=0 / qpmax=69 / qpstep=4 / ip_ratio=1.40 / aq=1:1.00
Default : Yes
Forced : No

Audio #1
ID : 2
ID in the original source medium : 4354 (0x1102)
Format : DTS XLL
Format/Info : Digital Theater Systems
Commercial name : DTS-HD Master Audio
Codec ID : A_DTS
Duration : 1 h 37 min
Bit rate mode : Variable
Bit rate : 2 354 kb/s
Channel(s) : 6 channels
Channel layout : C L R Ls Rs LFE
Sampling rate : 48.0 kHz
Frame rate : 93.750 FPS (512 SPF)
Bit depth : 16 bits
Compression mode : Lossless
Stream size : 1.60 GiB (4%)
Title : An.American.Werewolf.in.London.1981.2160p.BluRay.x264.8bit.SDR.DTS-HD.MA.5.1-SWTYBLZ
Language : English
Default : Yes
Forced : No
Original source medium : Blu-ray

Audio #2
ID : 3
Format : AC-3
Format/Info : Audio Coding 3
Commercial name : Dolby Digital
Codec ID : A_AC3
Duration : 1 h 37 min
Bit rate mode : Constant
Bit rate : 640 kb/s
Channel(s) : 6 channels
Channel layout : L R C LFE Ls Rs
Sampling rate : 48.0 kHz
Frame rate : 31.250 FPS (1536 SPF)
Compression mode : Lossy
Stream size : 445 MiB (1%)
Title : An.American.Werewolf.in.London.1981.2160p.BluRay.x264.8bit.SDR.DTS-HD.MA.5.1-SWTYBLZ
Language : English
Service kind : Complete Main
Default : No
Forced : No

Text #1
ID : 4
Format : UTF-8
Codec ID : S_TEXT/UTF8
Codec ID/Info : UTF-8 Plain Text
Duration : 1 h 29 min
Bit rate : 52 b/s
Count of elements : 939
Stream size : 34.3 KiB (0%)
Title : English-SRT
Language : English
Default : Yes
Forced : No

Text #2
ID : 5
ID in the original source medium : 4769 (0x12A1)
Format : PGS
Muxing mode : zlib
Codec ID : S_HDMV/PGS
Codec ID/Info : Picture based subtitle format used on BDs/HD-DVDs
Duration : 1 h 29 min
Bit rate : 28.8 kb/s
Count of elements : 1885
Stream size : 18.4 MiB (0%)
Title : English-PGS
Language : English
Default : No
Forced : No
Original source medium : Blu-ray

Text #3
ID : 6
ID in the original source medium : 4768 (0x12A0)
Format : PGS
Muxing mode : zlib
Codec ID : S_HDMV/PGS
Codec ID/Info : Picture based subtitle format used on BDs/HD-DVDs
Duration : 1 h 33 min
Bit rate : 28.3 kb/s
Count of elements : 1978
Stream size : 18.9 MiB (0%)
Title : German-PGS
Language : German
Default : No
Forced : No
Original source medium : Blu-ray

Menu
00:00:00.000 : en:Chapter 01
00:06:47.198 : en:Chapter 02
00:11:29.772 : en:Chapter 03
00:17:20.748 : en:Chapter 04
00:24:51.239 : en:Chapter 05
00:31:26.718 : en:Chapter 06
00:37:40.967 : en:Chapter 07
00:42:57.741 : en:Chapter 08
00:47:57.666 : en:Chapter 09
00:54:51.246 : en:Chapter 10
00:58:52.487 : en:Chapter 11
01:01:23.429 : en:Chapter 12
01:06:26.273 : en:Chapter 13
01:09:14.942 : en:Chapter 14
01:15:17.930 : en:Chapter 15
01:22:09.883 : en:Chapter 16
01:28:45.695 : en:Chapter 17
01:33:42.617 : en:Chapter 18





1 个附件 售价 大小 下载 时间

An.American.Werewolf.in.London.1981.2160p.BluRay.x264.8bit.SDR.DTS-HD.MA.5.1-SWTYBLZ.zip 0 金币 101.85K 287 次 2月前

#1楼
发帖时间:2020-11-19 18:29:28   |   回复数:0
游客组