travismk
一代宗师

[更 早] [其他] [剧情] [BD-4K] 冲突/急先锋横扫罪恶城 Serpico.1973.2160p.BluRay.x264.8bit.SDR.DTS-HD.MA.5.1-SWTYBLZ 56.41G

-->

帖子完整标题:冲突/急先锋横扫罪恶城 Serpico.1973.2160p.BluRay.x264.8bit.SDR.DTS-HD.MA.5.1-SWTYBLZ 56.41GB



◎译  名 冲突/急先锋横扫罪恶城/谢皮科
◎片  名 Serpico
◎年  代 1973
◎产  地 意大利,美国
◎类  别 剧情 / 传记 / 犯罪
◎语  言 英语,西班牙语,意大利语
◎上映日期 1973-12-05
◎IMDb评分 7.7/10 from 108127 users
◎IMDb链接 https://www.imdb.com/title/tt0070666/
◎豆瓣评分 7.7/10 from 2435 users
◎豆瓣链接 https://movie.douban.com/subject/1292857/
◎片  长 130 分钟
◎导  演 西德尼·吕美特 Sidney Lumet
◎编  剧 瓦尔度·绍特 Waldo Salt / 诺曼·韦克斯勒 Norman Wexler
◎主  演 阿尔·帕西诺 Al Pacino
      约翰·兰道夫 John Randolph
      杰克·基欧 Jack Kehoe
      比夫·麦奎尔 Biff McGuire
      艾伦·瑞奇 Allan Rich

◎标  签 阿尔·帕西诺 | 美国 | 犯罪 | AlPacino | 1973 | 美国电影 | SidneyLumet | 剧情

◎简  介

  法兰克是一个年轻而富有理想的警察,他从巡警开始做起,后来成为卧底警察,虽然他的破案率很高,但他不愿意象其他警察那样收受贿赂,这使他显得和其他人格格不入。这种做法也使他身陷危机,因为他的同事们都与他为敌,且不时地陷害他。当检察组开始调查警局内部的贪污内幕时,他又出面作证,因此更陷入危险之中……

◎获奖情况

  第46届奥斯卡金像奖 ?(1974)
  最佳男主角(提名) 阿尔·帕西诺
  最佳改编剧本(提名) 诺曼·韦克斯勒?/?瓦尔度·绍特

Video
ID : 1
Format : AVC
Format/Info : Advanced Video Codec
Format profile : [email protected]
Format settings : CABAC / 5 Ref Frames
Format settings, CABAC : Yes
Format settings, Reference frames : 5 frames
Codec ID : V_MPEG4/ISO/AVC
Duration : 2 h 10 min
Bit rate : 56.1 Mb/s
Width : 3 840 pixels
Height : 2 072 pixels
Display aspect ratio : 1.85:1
Frame rate mode : Constant
Frame rate : 24.000 FPS
Color space : YUV
Chroma subsampling : 4:2:0
Bit depth : 8 bits
Scan type : Progressive
Bits/(Pixel*Frame) : 0.294
Stream size : 50.4 GiB (90%)
Title : Serpico.1973.2160p.BluRay.x264.8bit.SDR.DTS-HD.MA.5.1-SWTYBLZ
Writing library : x264 core 157 r2935 545de2f
Encoding settings : cabac=1 / ref=5 / deblock=1:-1:-1 / analyse=0x3:0x113 / me=umh / subme=10 / psy=1 / psy_rd=1.00:0.15 / mixed_ref=1 / me_range=48 / chroma_me=1 / trellis=2 / 8x8dct=1 / cqm=0 / deadzone=21,11 / fast_pskip=1 / chroma_qp_offset=-3 / threads=36 / lookahead_threads=3 / sliced_threads=0 / nr=0 / decimate=0 / interlaced=0 / bluray_compat=0 / constrained_intra=0 / bframes=3 / b_pyramid=2 / b_adapt=2 / b_bias=0 / direct=3 / weightb=1 / open_gop=0 / weightp=2 / keyint=250 / keyint_min=23 / scenecut=40 / intra_refresh=0 / rc_lookahead=50 / rc=crf / mbtree=1 / crf=20.0 / qcomp=0.60 / qpmin=0 / qpmax=69 / qpstep=4 / ip_ratio=1.40 / aq=1:1.00
Default : Yes
Forced : No

Audio #1
ID : 2
Format : DTS XLL
Format/Info : Digital Theater Systems
Commercial name : DTS-HD Master Audio
Codec ID : A_DTS
Duration : 2 h 10 min
Bit rate mode : Variable
Bit rate : 3 440 kb/s
Channel(s) : 6 channels
Channel layout : C L R Ls Rs LFE
Sampling rate : 48.0 kHz
Frame rate : 93.750 FPS (512 SPF)
Bit depth : 24 bits
Compression mode : Lossless
Stream size : 3.13 GiB (6%)
Title : Serpico.1973.2160p.BluRay.x264.8bit.SDR.DTS-HD.MA.5.1-SWTYBLZ
Language : English
Default : Yes
Forced : No

Audio #2
ID : 3
Format : AC-3
Format/Info : Audio Coding 3
Commercial name : Dolby Digital
Codec ID : A_AC3
Duration : 2 h 10 min
Bit rate mode : Constant
Bit rate : 640 kb/s
Channel(s) : 6 channels
Channel layout : L R C LFE Ls Rs
Sampling rate : 48.0 kHz
Frame rate : 31.250 FPS (1536 SPF)
Compression mode : Lossy
Stream size : 596 MiB (1%)
Title : Serpico.1973.2160p.BluRay.x264.8bit.SDR.DTS-HD.MA.5.1-SWTYBLZ
Language : English
Service kind : Complete Main
Default : No
Forced : No

Audio #3
ID : 4
ID in the original source medium : 4353 (0x1101)
Format : PCM
Format settings : Little / Signed
Codec ID : A_PCM/INT/LIT
Duration : 2 h 10 min
Bit rate mode : Constant
Bit rate : 2 304 kb/s
Channel(s) : 2 channels
Sampling rate : 48.0 kHz
Frame rate : 30.000 FPS (1600 SPF)
Bit depth : 24 bits
Stream size : 2.10 GiB (4%)
Title : Serpico.1973.2160p.BluRay.x264.8bit.SDR.DTS-HD.MA.5.1-SWTYBLZ
Language : English
Default : No
Forced : No
Original source medium : Blu-ray

Text #1
ID : 5
Format : UTF-8
Codec ID : S_TEXT/UTF8
Codec ID/Info : UTF-8 Plain Text
Duration : 2 h 6 min
Bit rate : 61 b/s
Count of elements : 1519
Stream size : 56.9 KiB (0%)
Title : English-SRT
Language : English
Default : Yes
Forced : No

Text #2
ID : 6
ID in the original source medium : 4768 (0x12A0)
Format : PGS
Muxing mode : zlib
Codec ID : S_HDMV/PGS
Codec ID/Info : Picture based subtitle format used on BDs/HD-DVDs
Duration : 2 h 7 min
Bit rate : 30.2 kb/s
Count of elements : 1910
Stream size : 27.5 MiB (0%)
Title : German-PGS
Language : German
Default : No
Forced : No
Original source medium : Blu-ray

Text #3
ID : 7
ID in the original source medium : 4769 (0x12A1)
Format : PGS
Muxing mode : zlib
Codec ID : S_HDMV/PGS
Codec ID/Info : Picture based subtitle format used on BDs/HD-DVDs
Duration : 2 h 8 min
Bit rate : 25.4 kb/s
Count of elements : 2640
Stream size : 23.4 MiB (0%)
Title : French-PGS
Language : French
Default : No
Forced : No
Original source medium : Blu-ray

Menu
00:00:00.000 : en:Chapter 01
00:06:36.000 : en:Chapter 02
00:20:57.000 : en:Chapter 03
00:30:30.000 : en:Chapter 04
00:39:22.000 : en:Chapter 05
00:51:30.000 : en:Chapter 06
00:58:44.000 : en:Chapter 07
01:10:44.000 : en:Chapter 08
01:24:51.000 : en:Chapter 09
01:36:02.000 : en:Chapter 10
01:50:17.000 : en:Chapter 11
02:02:26.000 : en:Chapter 12





1 个附件 售价 大小 下载 时间

Serpico.1973.2160p.BluRay.x264.8bit.SDR.DTS-HD.MA.5.1-SWTYBLZ.zip 0 金币 141.76K 280 次 2月前

#1楼
发帖时间:2020-11-19 10:33:53   |   回复数:1
kola13
武林盟主
感谢分享
2月前 #2楼
游客组