travismk
一代宗师

[2013] [其他] [剧情] [BD-1080P] 葛洛莉亚/去她的第二春 Gloria.2013.LIMITED.1080p.BluRay.x264-USURY 7.66GB

-->

帖子完整标题:葛洛莉亚/去她的第二春 Gloria.2013.LIMITED.1080p.BluRay.x264-USURY 7.66GB



◎译  名 葛洛莉亚/去她的第二春(台)/格洛丽亚/歌莉亚恋爱日记(港)/葛洛莉/葛罗瑞亚
◎片  名 Gloria
◎年  代 2013
◎产  地 智利,西班牙
◎类  别 剧情
◎语  言 西班牙语
◎上映日期 2013-02-10(柏林电影节) / 2013-05-09(智利) / 2013-10-04(西班牙)
◎IMDb评分 6.8/10 from 8336 users
◎IMDb链接 https://www.imdb.com/title/tt2425486/
◎豆瓣评分 7.2/10 from 1670 users
◎豆瓣链接 https://movie.douban.com/subject/20444892/
◎片  长 110分钟
◎导  演 塞巴斯蒂安·莱里奥 Sebastián Lelio
◎编  剧 塞巴斯蒂安·莱里奥 Sebastián Lelio / 刚扎洛·玛萨 Gonzalo Maza
◎主  演 宝琳娜·加西亚 Paulina García
      塞尔吉奥·埃尔南德斯 Sergio Hernández
      迭戈·方提西拉 Diego Fontecilla
      法比奥拉·萨莫拉 Fabiola Zamora
      寇卡·瓜兹尼 Coca Guazzini
      Hugo Moraga
      伊尔·迈耶 Eyal Meyer

◎标  签 智利 | 2013 | 西班牙 | 女性 | 爱情 | 剧情 | 柏林电影节 | 塞巴斯蒂安·莱里奥

◎简  介

  故事发生在智利首都圣地亚哥。葛洛莉亚(宝琳娜·加西亚 Paulina Garcia 饰),58岁,总是戴着一副大框近视镜,离婚10年。然而这些单调而沉闷的标签并没有阻止她对幸福生活的向往和追求。葛洛莉亚热衷于参加各种单身聚会来寻求短暂的满足感,即使每每派对结束,葛洛莉亚仍要独自一人承受更大的寂寞与空虚。直到葛洛莉亚偶然间在一次派对上结识了温文尔雅的退役海军军官鲁道夫(塞吉奥·赫尔南德兹 Sergio Hernández 饰),久违的爱欲之火在浪漫的邂逅中熊熊燃烧。二人参加迷彩射击游戏、玩蹦极当然还有甜蜜的肌肤相亲。鲁道夫一瞬间唤醒了葛洛莉亚的所有激情与欲望,她开始憧憬和鲁道夫的未来,甚至与之携手终生。然而在与鲁道夫的亲密相处中,葛洛莉亚的担忧却日益加深。终于,在一次生日宴会上,鲁道夫再次不告而别。此时的葛洛莉亚下定决心告别这段关系。
  
  女主角宝琳娜·加西亚凭借此片荣获2013年第63届柏林国际电影节银熊奖-最佳女演员。

◎获奖情况

  第63届柏林国际电影节 ?(2013)
  金熊奖最佳影片(提名) 塞巴斯蒂安·莱里奥
  银熊奖最佳女演员 宝琳娜·加西亚
  费比西奖(国际影评人联盟奖)竞赛单元最佳影片 塞巴斯蒂安·莱里奥
  
  第28届西班牙戈雅奖 ?(2014)
  最佳伊比利亚美洲电影(提名) 塞巴斯蒂安·莱里奥
  
  第85届美国国家评论协会奖 ?(2014)
  五佳外语片
  
  第29届美国独立精神奖 ?(2014)
  最佳国际电影(提名) 塞巴斯蒂安·莱里奥
  
  第34届伦敦影评人协会奖 ?(2014)
  年度外语片(提名)
  
  第17届美国在线影评人协会奖 ?(2013)
  最佳非北美上映影片

Video
ID : 1
Format : AVC
Format/Info : Advanced Video Codec
Format profile : [email protected]
Format settings : CABAC / 5 Ref Frames
Format settings, CABAC : Yes
Format settings, Reference frames : 5 frames
Codec ID : V_MPEG4/ISO/AVC
Duration : 1 h 49 min
Bit rate : 8 531 kb/s
Width : 1 920 pixels
Height : 808 pixels
Display aspect ratio : 2.40:1
Frame rate mode : Constant
Frame rate : 24.000 FPS
Color space : YUV
Chroma subsampling : 4:2:0
Bit depth : 8 bits
Scan type : Progressive
Bits/(Pixel*Frame) : 0.229
Stream size : 6.50 GiB (85%)
Writing library : x264 core 148 r2638 7599210
Encoding settings : cabac=1 / ref=5 / deblock=1:0:0 / analyse=0x3:0x133 / me=umh / subme=7 / psy=1 / psy_rd=1.00:0.00 / mixed_ref=1 / me_range=16 / chroma_me=1 / trellis=1 / 8x8dct=1 / cqm=0 / deadzone=21,11 / fast_pskip=0 / chroma_qp_offset=-2 / threads=12 / lookahead_threads=2 / sliced_threads=0 / nr=0 / decimate=1 / interlaced=0 / bluray_compat=0 / constrained_intra=0 / bframes=3 / b_pyramid=2 / b_adapt=2 / b_bias=0 / direct=3 / weightb=1 / open_gop=0 / weightp=2 / keyint=250 / keyint_min=23 / scenecut=40 / intra_refresh=0 / rc_lookahead=50 / rc=2pass / mbtree=1 / bitrate=8531 / ratetol=1.0 / qcomp=0.60 / qpmin=0 / qpmax=69 / qpstep=4 / cplxblur=20.0 / qblur=0.5 / ip_ratio=1.40 / aq=1:1.00
Language : English
Default : Yes
Forced : No

Audio
ID : 2
Format : DTS
Format/Info : Digital Theater Systems
Codec ID : A_DTS
Duration : 1 h 49 min
Bit rate mode : Constant
Bit rate : 1 509 kb/s
Channel(s) : 6 channels
Channel layout : C L R Ls Rs LFE
Sampling rate : 48.0 kHz
Frame rate : 93.750 FPS (512 SPF)
Bit depth : 24 bits
Compression mode : Lossy
Stream size : 1.15 GiB (15%)
Language : Spanish
Default : Yes
Forced : No

Text
ID : 3
Format : UTF-8
Codec ID : S_TEXT/UTF8
Codec ID/Info : UTF-8 Plain Text
Duration : 1 h 41 min
Bit rate : 34 b/s
Count of elements : 952
Stream size : 25.5 KiB (0%)
Language : English
Default : Yes
Forced : Yes

Menu
00:00:00.000 : en:00:00:00.000
00:09:55.417 : en:00:09:55.417
00:19:06.417 : en:00:19:06.417
00:28:06.417 : en:00:28:06.417
00:32:23.000 : en:00:32:23.000
00:40:45.417 : en:00:40:45.417
00:54:33.000 : en:00:54:33.000
01:01:38.417 : en:01:01:38.417
01:09:18.417 : en:01:09:18.417
01:19:32.417 : en:01:19:32.417
01:25:14.417 : en:01:25:14.417
01:35:03.417 : en:01:35:03.417





1 个附件 售价 大小 下载 时间

Gloria.2013.LIMITED.1080p.BluRay.x264-USURY.zip 0 金币 77.31K 322 次 1月前

#1楼
发帖时间:2020-11-19 10:07:20   |   回复数:1
kola13
武林盟主
感谢分享
1月前 #2楼
游客组