travismk
一代宗师

[2013] [欧美] [WEB-1080P] 心灵的呼唤 Origin.A.Call.to.Minds.2013.1080p.AMZN.WEBRip.DDP2.0.x264-NOGRP 1.90GB

-->

帖子完整标题:心灵的呼唤 Origin.A.Call.to.Minds.2013.1080p.AMZN.WEBRip.DDP2.0.x264-NOGRP 1.90GB



◎译  名 心灵的呼唤
◎片  名 A Call To Minds
◎年  代 2013
◎产  地 美国
◎类  别 
◎语  言 英语
◎上映日期 
◎IMDb评分 5.1/10 from 26 users
◎IMDb链接 https://www.imdb.com/title/tt1930432/
◎豆瓣评分 /10 from 0 users
◎豆瓣链接 https://movie.douban.com/subject/30220697/

◎简  介

  克里姆(阿曼达·简·史密斯饰)试图将其意识输入一种称为奥特码的机器。 她唯一的伴侣屋大维(迈克尔·默西饰)则站在她黑暗人性的对立面,引导她回到真正的自我。 第一次失败后,美托洛克(丹·沃斯特饰)继续与黑暗时代的混乱和暴力作斗争,但他们隐瞒了一个秘密:他们的权力来自克里姆,他的意识被囚禁在一个叫做奥特码的机器里。《记忆的呼唤》是执政官防御者三部曲中的第二部。

Video
ID : 1
Format : AVC
Format/Info : Advanced Video Codec
Format profile : [email protected]
Format settings : CABAC / 4 Ref Frames
Format settings, CABAC : Yes
Format settings, Reference frames : 4 frames
Codec ID : V_MPEG4/ISO/AVC
Duration : 1 h 19 min
Bit rate mode : Constant
Bit rate : 3 191 kb/s
Nominal bit rate : 10 000 kb/s
Width : 1 920 pixels
Height : 960 pixels
Display aspect ratio : 2.000
Frame rate mode : Constant
Frame rate : 24.000 FPS
Color space : YUV
Chroma subsampling : 4:2:0
Bit depth : 8 bits
Scan type : Progressive
Bits/(Pixel*Frame) : 0.072
Stream size : 1.78 GiB (93%)
Default : Yes
Forced : No
Color range : Limited
Color primaries : BT.709
Transfer characteristics : BT.709
Matrix coefficients : BT.709

Audio
ID : 2
Format : E-AC-3
Format/Info : Enhanced AC-3
Commercial name : Dolby Digital Plus
Codec ID : A_EAC3
Duration : 1 h 19 min
Bit rate mode : Constant
Bit rate : 224 kb/s
Channel(s) : 2 channels
Channel layout : L R
Sampling rate : 48.0 kHz
Frame rate : 31.250 FPS (1536 SPF)
Compression mode : Lossy
Stream size : 128 MiB (7%)
Title : English
Language : English
Service kind : Complete Main
Default : Yes
Forced : No

Text
ID : 3
Format : UTF-8
Codec ID : S_TEXT/UTF8
Codec ID/Info : UTF-8 Plain Text
Duration : 1 h 18 min
Bit rate : 33 b/s
Count of elements : 758
Stream size : 19.4 KiB (0%)
Title : English [SDH]
Language : English
Default : No
Forced : No





1 个附件 售价 大小 下载 时间

Origin.A.Call.to.Minds.2013.1080p.AMZN.WEBRip.DDP2.0.x264-NOGRP.zip 0 金币 19.70K 126 次 2月前

#1楼
发帖时间:2020-11-18 19:08:39   |   回复数:0
游客组