travismk
一代宗师

[2013] [欧美] [其他] [WEB-1080P] 时尚骨灰撒在波道夫 Scatter.My.Ashes.at.Bergdorfs.2013.1080p.AMZN.WEBRip.DDP2.0.x264-ISA 5

-->

帖子完整标题:时尚骨灰撒在波道夫 Scatter.My.Ashes.at.Bergdorfs.2013.1080p.AMZN.WEBRip.DDP2.0.x264-ISA 5.90GB



◎译  名 时尚骨灰撒在波道夫
◎片  名 Scatter My Ashes at Bergdorf's
◎年  代 2013
◎产  地 美国
◎类  别 纪录片
◎语  言 英语
◎上映日期 2013-05-03(美国) / 2013-12-06(英国)
◎IMDb评分 6.3/10 from 808 users
◎IMDb链接 https://www.imdb.com/title/tt1893326/
◎豆瓣评分 7.4/10 from 142 users
◎豆瓣链接 https://movie.douban.com/subject/10581378/
◎片  长 93分钟
◎导  演 马修·密勒 Matthew Miele
◎编  剧 马修·密勒 Matthew Miele
◎主  演 威廉·菲克纳 William Fichtner
      玛丽-凯特·奥尔森 Mary-Kate Olsen
      艾什丽·奥尔森 Ashley Olsen
      坎迪斯·伯根 Candice Bergen
      妮可·里奇 Nicole Richie
      琼·里弗斯 Joan Rivers
      艾瑞斯·阿普瑞尔 Iris Apfel
      斯蒂芬诺·嘉班纳 Stefano Gabbana
      劳伦·布什 Lauren Bush

◎标  签 纪录片 | 时尚 | 美国 | 时装 | 买手记录片 | fashion | 设计 | 2013

◎简  介

  A documentary on the Manhattan department store with interviews from an array of fashion designers, style icons, and celebrities.

Video
ID : 1
Format : AVC
Format/Info : Advanced Video Codec
Format profile : [email protected]
Format settings : CABAC / 4 Ref Frames
Format settings, CABAC : Yes
Format settings, Reference frames : 4 frames
Codec ID : V_MPEG4/ISO/AVC
Duration : 1 h 33 min
Bit rate mode : Constant
Bit rate : 8 823 kb/s
Nominal bit rate : 10 000 kb/s
Width : 1 920 pixels
Height : 1 080 pixels
Display aspect ratio : 16:9
Frame rate mode : Constant
Frame rate : 23.976 (24000/1001/189150) FPS
Color space : YUV
Chroma subsampling : 4:2:0
Bit depth : 8 bits
Scan type : Progressive
Bits/(Pixel*Frame) : 0.177
Stream size : 5.76 GiB (98%)
Language : English
Default : Yes
Forced : No
Color range : Limited
Color primaries : BT.709
Transfer characteristics : BT.709
Matrix coefficients : BT.709

Audio
ID : 2
Format : E-AC-3
Format/Info : Enhanced AC-3
Commercial name : Dolby Digital Plus
Codec ID : A_EAC3
Duration : 1 h 33 min
Bit rate mode : Constant
Bit rate : 224 kb/s
Channel(s) : 2 channels
Channel layout : L R
Sampling rate : 48.0 kHz
Frame rate : 31.250 FPS (1536 SPF)
Compression mode : Lossy
Stream size : 150 MiB (2%)
Language : English
Service kind : Complete Main
Default : No
Forced : No

Text
ID : 3
Format : UTF-8
Codec ID : S_TEXT/UTF8
Codec ID/Info : UTF-8 Plain Text
Duration : 1 h 32 min
Bit rate : 95 b/s
Count of elements : 1539
Stream size : 64.6 KiB (0%)
Title : SDH
Language : English
Default : No
Forced : No





1 个附件 售价 大小 下载 时间

Scatter.My.Ashes.at.Bergdorfs.2013.1080p.AMZN.WEBRip.DDP2.0.x264-ISA.zip 0 金币 30.23K 210 次 2月前

#1楼
发帖时间:2020-11-18 18:58:45   |   回复数:0
游客组