travismk
一代宗师

[2013] [其他] [其他] [WEB-1080P] 人体器官交易实录/器官交易的故事 Tales.from.the.Organ.Trade.2013.1080p.AMZN.WEBRip.DDP2.0.x264-N

-->

帖子完整标题:人体器官交易实录/器官交易的故事 Tales.from.the.Organ.Trade.2013.1080p.AMZN.WEBRip.DDP2.0.x264-NOGRP 5.51GB



◎译  名 人体器官交易实录/器官交易的故事
◎片  名 Tales from the Organ Trade
◎年  代 2013
◎产  地 加拿大/塞尔维亚/菲律宾/摩尔多瓦/美国/土耳其/以色列
◎类  别 纪录片
◎语  言 英语
◎上映日期 
◎IMDb评分 7.3/10 from 219 users
◎IMDb链接 https://www.imdb.com/title/tt2518924/
◎豆瓣评分 8.1/10 from 412 users
◎豆瓣链接 https://movie.douban.com/subject/24871614/
◎片  长 82分钟
◎编  剧 瑞克·埃丝特·比恩斯托克 Ric Esther Bienstock

◎标  签 纪录片 | 器官贩卖 | 伦理 | 道德 | 法律 | 美国 | 2013 | 土耳其

◎简  介

  影片中既有器官贩卖经纪人、没有职业道德的医生的讲述,也展现了那些为了尽快拿到钱而愿意出卖器官的贫穷的男男女女,以及在遵守法律与生命中艰难选择的绝望病人的生活

Video
ID : 1
Format : AVC
Format/Info : Advanced Video Codec
Format profile : [email protected]
Format settings : CABAC / 4 Ref Frames
Format settings, CABAC : Yes
Format settings, Reference frames : 4 frames
Codec ID : V_MPEG4/ISO/AVC
Duration : 1 h 22 min
Bit rate mode : Constant
Bit rate : 9 382 kb/s
Nominal bit rate : 10 000 kb/s
Width : 1 920 pixels
Height : 1 080 pixels
Display aspect ratio : 16:9
Frame rate mode : Constant
Frame rate : 25.000 FPS
Color space : YUV
Chroma subsampling : 4:2:0
Bit depth : 8 bits
Scan type : Progressive
Bits/(Pixel*Frame) : 0.181
Stream size : 5.38 GiB (98%)
Default : Yes
Forced : No
Color range : Limited
Color primaries : BT.709
Transfer characteristics : BT.709
Matrix coefficients : BT.709

Audio
ID : 2
Format : E-AC-3
Format/Info : Enhanced AC-3
Commercial name : Dolby Digital Plus
Codec ID : A_EAC3
Duration : 1 h 22 min
Bit rate mode : Constant
Bit rate : 224 kb/s
Channel(s) : 2 channels
Channel layout : L R
Sampling rate : 48.0 kHz
Frame rate : 31.250 FPS (1536 SPF)
Compression mode : Lossy
Stream size : 132 MiB (2%)
Title : English
Language : English
Service kind : Complete Main
Default : Yes
Forced : No

Text
ID : 3
Format : UTF-8
Codec ID : S_TEXT/UTF8
Codec ID/Info : UTF-8 Plain Text
Duration : 1 h 19 min
Bit rate : 74 b/s
Count of elements : 1254
Stream size : 43.4 KiB (0%)
Title : English [SDH]
Language : English
Default : No
Forced : No





1 个附件 售价 大小 下载 时间

Tales.from.the.Organ.Trade.2013.1080p.AMZN.WEBRip.DDP2.0.x264-NOGRP.zip 0 金币 28.27K 910 次 2月前

#1楼
发帖时间:2020-11-18 18:50:54   |   回复数:0
游客组