travismk
一代宗师

[2020] [其他] [惊悚] [BD-4K] 格蕾特和韩塞尔 Gretel.and.Hansel.2020.2160p.BluRay.x264.8bit.SDR.DTS-HD.MA.5.1-SWTYBLZ

-->

帖子完整标题:格蕾特和韩塞尔 Gretel.and.Hansel.2020.2160p.BluRay.x264.8bit.SDR.DTS-HD.MA.5.1-SWTYBLZ 19.02GB



◎译  名 格蕾特和韩塞尔/Gretel and Hansel/战栗糖果屋(台)/格蕾特和汉塞尔/糖果屋/韩赛尔与格蕾特
◎片  名 Gretel & Hansel
◎年  代 2020
◎产  地 加拿大,爱尔兰,美国,南非
◎类  别 惊悚 / 恐怖 / 奇幻
◎语  言 英语
◎上映日期 2020-01-31(美国)
◎IMDb评分 5.3/10 from 20702 users
◎IMDb链接 https://www.imdb.com/title/tt9086228/
◎豆瓣评分 5.4/10 from 1669 users
◎豆瓣链接 https://movie.douban.com/subject/34807058/
◎片  长 87分钟
◎导  演 奥兹·珀金斯 Oz Perkins
◎编  剧 罗布·海斯 Rob Hayes / 奥兹·珀金斯 Oz Perkins
◎主  演 索菲娅·莉莉丝 Sophia Lillis
      艾丽丝·克里奇 Alice Krige
      杰西卡·德·古维 Jessica De Gouw
      查尔斯·巴巴洛拉 Charles Babalola
      塞缪尔·利基 Samuel Leakey
      伊安·肯尼 Ian Kenny
      阿卜杜勒·阿尔沙瑞夫 Abdul Alshareef
      曼纽尔·庞波 Manuel Pombo
      贝娅特丽克斯·帕金斯 Beatrix Perkins

◎标  签 恐怖 | 惊悚 | 奇幻 | 2020 | 美国 | 魔幻 | 黑色童话 | 格林童话

◎简  介

  描述葛丽特与汉赛尔被抛弃在黑森林中,试图找寻食物,却误入女巫预备丰盛佳肴的屋子。
  
  故事发生在很久很久以前,在一个遥远的村庄,女孩葛丽特(索菲娅·莉莉丝 饰)带着弟弟韩赛尔进入一片幽暗密林,饥寒交迫的两人原本希望可以在这里找到食物和工作,却遇上了令人恐惧的邪恶存在……

Video
ID : 1
Format : AVC
Format/Info : Advanced Video Codec
Format profile : [email protected]
Format settings : CABAC / 5 Ref Frames
Format settings, CABAC : Yes
Format settings, Reference frames : 5 frames
Codec ID : V_MPEG4/ISO/AVC
Duration : 1 h 27 min
Bit rate : 28.0 Mb/s
Width : 3 840 pixels
Height : 2 076 pixels
Display aspect ratio : 1.85:1
Frame rate mode : Constant
Frame rate : 23.976 (24000/1001/189150) FPS
Color space : YUV
Chroma subsampling : 4:2:0
Bit depth : 8 bits
Scan type : Progressive
Bits/(Pixel*Frame) : 0.147
Stream size : 17.1 GiB (90%)
Title : Gretel.and.Hansel.2020.2160p.BluRay.x264.8bit.SDR.DTS-HD.MA.5.1-SWTYBLZ
Writing library : x264 core 157 r2935 545de2f
Encoding settings : cabac=1 / ref=5 / deblock=1:-1:-1 / analyse=0x3:0x113 / me=umh / subme=10 / psy=1 / psy_rd=1.00:0.15 / mixed_ref=1 / me_range=48 / chroma_me=1 / trellis=2 / 8x8dct=1 / cqm=0 / deadzone=21,11 / fast_pskip=1 / chroma_qp_offset=-3 / threads=48 / lookahead_threads=4 / sliced_threads=0 / nr=0 / decimate=0 / interlaced=0 / bluray_compat=0 / constrained_intra=0 / bframes=3 / b_pyramid=2 / b_adapt=2 / b_bias=0 / direct=3 / weightb=1 / open_gop=0 / weightp=2 / keyint=250 / keyint_min=23 / scenecut=40 / intra_refresh=0 / rc_lookahead=50 / rc=crf / mbtree=1 / crf=18.0 / qcomp=0.60 / qpmin=0 / qpmax=69 / qpstep=4 / ip_ratio=1.40 / aq=1:1.00
Language : English
Default : Yes
Forced : No

Audio #1
ID : 2
ID in the original source medium : 4353 (0x1101)
Format : DTS XLL
Format/Info : Digital Theater Systems
Commercial name : DTS-HD Master Audio
Codec ID : A_DTS
Duration : 1 h 27 min
Bit rate mode : Variable
Bit rate : 2 334 kb/s
Channel(s) : 6 channels
Channel layout : C L R Ls Rs LFE
Sampling rate : 48.0 kHz
Frame rate : 93.750 FPS (512 SPF)
Bit depth : 16 bits
Compression mode : Lossless
Stream size : 1.43 GiB (8%)
Title : Gretel.and.Hansel.2020.2160p.BluRay.x264.8bit.SDR.DTS-HD.MA.5.1-SWTYBLZ
Language : English
Default : Yes
Forced : No
Original source medium : Blu-ray

Audio #2
ID : 3
Format : AC-3
Format/Info : Audio Coding 3
Commercial name : Dolby Digital
Codec ID : A_AC3
Duration : 1 h 27 min
Bit rate mode : Constant
Bit rate : 640 kb/s
Channel(s) : 6 channels
Channel layout : L R C LFE Ls Rs
Sampling rate : 48.0 kHz
Frame rate : 31.250 FPS (1536 SPF)
Compression mode : Lossy
Stream size : 400 MiB (2%)
Title : Gretel.and.Hansel.2020.2160p.BluRay.x264.8bit.SDR.DTS-HD.MA.5.1-SWTYBLZ
Language : English
Service kind : Complete Main
Default : No
Forced : No

Text #1
ID : 4
Format : UTF-8
Codec ID : S_TEXT/UTF8
Codec ID/Info : UTF-8 Plain Text
Duration : 1 h 21 min
Bit rate : 40 b/s
Count of elements : 815
Stream size : 23.9 KiB (0%)
Title : English-SRT
Language : English
Default : Yes
Forced : No

Text #2
ID : 5
Format : UTF-8
Codec ID : S_TEXT/UTF8
Codec ID/Info : UTF-8 Plain Text
Duration : 1 h 21 min
Bit rate : 42 b/s
Count of elements : 913
Stream size : 25.7 KiB (0%)
Title : English-SDH-SRT
Language : English
Default : No
Forced : No

Text #3
ID : 6
ID in the original source medium : 4768 (0x12A0)
Format : PGS
Muxing mode : zlib
Codec ID : S_HDMV/PGS
Codec ID/Info : Picture based subtitle format used on BDs/HD-DVDs
Duration : 1 h 21 min
Bit rate : 27.6 kb/s
Count of elements : 1458
Stream size : 16.1 MiB (0%)
Title : German-PGS
Language : German
Default : No
Forced : No
Original source medium : Blu-ray

Menu
00:00:00.000 : en:Chapter 01
00:07:09.429 : en:Chapter 02
00:14:15.604 : en:Chapter 03
00:21:47.889 : en:Chapter 04
00:28:14.401 : en:Chapter 05
00:36:35.359 : en:Chapter 06
00:44:51.772 : en:Chapter 07
00:52:16.633 : en:Chapter 08
01:02:25.783 : en:Chapter 09
01:10:40.736 : en:Chapter 10
01:15:31.777 : en:Chapter 11
01:19:11.496 : en:Chapter 12
01:27:18.524 : en:Chapter 13





1 个附件 售价 大小 下载 时间

Gretel.and.Hansel.2020.2160p.BluRay.x264.8bit.SDR.DTS-HD.MA.5.1-SWTYBLZ.zip 0 金币 95.88K 427 次 2月前

#1楼
发帖时间:2020-11-18 15:11:51   |   回复数:1
kola13
武林盟主
感谢分享
2月前 #2楼
游客组