travismk
一代宗师

[更 早] [欧美] [剧情] [BD-4K] 秃鹰七十二小时/秃鹰72小时 Three.Days.of.the.Condor.1975.2160p.BluRay.x264.8bit.SDR.DTS-HD.M

-->

帖子完整标题:秃鹰七十二小时/秃鹰72小时 Three.Days.of.the.Condor.1975.2160p.BluRay.x264.8bit.SDR.DTS-HD.MA.5.1-SWTYBLZ 52.73GB



◎译  名 秃鹰七十二小时/秃鹰72小时/秃鹰的三天/英雄不流泪/追杀
◎片  名 Three Days of the Condor
◎年  代 1975
◎产  地 美国
◎类  别 剧情 / 动作 / 惊悚
◎语  言 英语,法语
◎上映日期 1975-09-24(美国)
◎IMDb评分 7.4/10 from 47530 users
◎IMDb链接 https://www.imdb.com/title/tt0073802/
◎豆瓣评分 6.9/10 from 1082 users
◎豆瓣链接 https://movie.douban.com/subject/1299170/
◎片  长 117分钟
◎导  演 西德尼·波拉克 Sydney Pollack / 彼特·克林逊 Peter Collinson
◎编  剧 詹姆斯·格雷迪 James Grady / 洛伦佐·森普尔 Lorenzo Semple Jr. / 大卫·雷菲尔德 David Rayfiel / 大卫·D·奥斯本 David D. Osborn
◎主  演 罗伯特·雷德福 Robert Redford
      费·唐纳薇 Faye Dunaway
      克里夫·罗伯逊 Cliff Robertson
      马克斯·冯·叙多夫 Max von Sydow
      约翰·豪斯曼 John Houseman
      艾迪生·鲍威尔 Addison Powell
      沃尔特·麦金恩 Walter McGinn
      蒂娜·陈 Tina Chen
      唐麦克亨利 Don McHenry
      杰斯·奥苏纳 Jess Osuna
      迪诺·纳里扎诺 Dino Narizzano
      理查德·林奇 Richard Lynch
      彼得·方达 Peter Fonda
      西蒙·安德鲁 Simón Andreu
      Concha Cuetos
      弗兰克·布拉尼亚 Frank Bra?a
      阿尔维托·德·门多萨 Alberto de Mendoza
      William Layton
      赫尔佳·丽列 Helga Liné
      Gudrun McCleary
      科妮莉娅·夏普 Cornelia Sharpe
      Loreta Tovar
      约翰·菲利浦·劳 John Phillip Law
      威廉·霍尔登 William Holden

◎标  签 美国 | 悬疑 | 间谍 | 美国电影 | 西德尼·波拉克 | 1975 | RobertRedford | 1970s

◎简  介

  美国中央情报局调查员透纳,自从发现局内不可告人的勾当,就此身陷一连串灾难事件。一日,两名男子冲进办公室,狙杀所有的员工,唯有透纳有幸逃脱。

◎获奖情况

  第48届奥斯卡金像奖 ?(1976)
  最佳剪辑(提名) 弗雷德里克·斯坦坎普?/?唐·盖迪斯

Video
ID : 1
Format : AVC
Format/Info : Advanced Video Codec
Format profile : [email protected]
Format settings : CABAC / 5 Ref Frames
Format settings, CABAC : Yes
Format settings, Reference frames : 5 frames
Codec ID : V_MPEG4/ISO/AVC
Duration : 1 h 57 min
Bit rate : 59.4 Mb/s
Width : 3 840 pixels
Height : 1 606 pixels
Display aspect ratio : 2.40:1
Frame rate mode : Constant
Frame rate : 24.000 FPS
Color space : YUV
Chroma subsampling : 4:2:0
Bit depth : 8 bits
Scan type : Progressive
Bits/(Pixel*Frame) : 0.401
Stream size : 48.7 GiB (93%)
Title : Three.Days.of.the.Condor.1975.2160p.BluRay.x264.8bit.SDR.DTS-HD.MA.5.1-SWTYBLZ
Writing library : x264 core 157 r2935 545de2f
Encoding settings : cabac=1 / ref=5 / deblock=1:-1:-1 / analyse=0x3:0x113 / me=umh / subme=10 / psy=1 / psy_rd=1.00:0.15 / mixed_ref=1 / me_range=48 / chroma_me=1 / trellis=2 / 8x8dct=1 / cqm=0 / deadzone=21,11 / fast_pskip=1 / chroma_qp_offset=-3 / threads=48 / lookahead_threads=4 / sliced_threads=0 / nr=0 / decimate=0 / interlaced=0 / bluray_compat=0 / constrained_intra=0 / bframes=3 / b_pyramid=2 / b_adapt=2 / b_bias=0 / direct=3 / weightb=1 / open_gop=0 / weightp=2 / keyint=250 / keyint_min=24 / scenecut=40 / intra_refresh=0 / rc_lookahead=50 / rc=crf / mbtree=1 / crf=20.0 / qcomp=0.60 / qpmin=0 / qpmax=69 / qpstep=4 / ip_ratio=1.40 / aq=1:1.00
Default : Yes
Forced : No

Audio #1
ID : 2
Format : DTS XLL
Format/Info : Digital Theater Systems
Commercial name : DTS-HD Master Audio
Codec ID : A_DTS
Duration : 1 h 57 min
Bit rate mode : Variable
Bit rate : 3 736 kb/s
Channel(s) : 6 channels
Channel layout : C L R Ls Rs LFE
Sampling rate : 48.0 kHz
Frame rate : 93.750 FPS (512 SPF)
Bit depth : 24 bits
Compression mode : Lossless
Stream size : 3.07 GiB (6%)
Title : Three.Days.of.the.Condor.1975.2160p.BluRay.x264.8bit.SDR.DTS-HD.MA.5.1-SWTYBLZ
Language : English
Default : Yes
Forced : No

Audio #2
ID : 3
Format : AC-3
Format/Info : Audio Coding 3
Commercial name : Dolby Digital
Codec ID : A_AC3
Duration : 1 h 57 min
Bit rate mode : Constant
Bit rate : 640 kb/s
Channel(s) : 6 channels
Channel layout : L R C LFE Ls Rs
Sampling rate : 48.0 kHz
Frame rate : 31.250 FPS (1536 SPF)
Compression mode : Lossy
Stream size : 538 MiB (1%)
Title : Three.Days.of.the.Condor.1975.2160p.BluRay.x264.8bit.SDR.DTS-HD.MA.5.1-SWTYBLZ
Language : English
Service kind : Complete Main
Default : No
Forced : No

Text #1
ID : 4
Format : UTF-8
Codec ID : S_TEXT/UTF8
Codec ID/Info : UTF-8 Plain Text
Duration : 8 s 287 ms
Bit rate : 80 b/s
Count of elements : 3
Stream size : 83.0 Bytes (0%)
Title : English-FORCED-SRT
Language : English
Default : Yes
Forced : Yes

Text #2
ID : 5
Format : UTF-8
Codec ID : S_TEXT/UTF8
Codec ID/Info : UTF-8 Plain Text
Duration : 1 h 54 min
Bit rate : 46 b/s
Count of elements : 1225
Stream size : 38.8 KiB (0%)
Title : English-SRT
Language : English
Default : No
Forced : No

Text #3
ID : 6
Format : PGS
Muxing mode : zlib
Codec ID : S_HDMV/PGS
Codec ID/Info : Picture based subtitle format used on BDs/HD-DVDs
Duration : 8 s 291 ms
Bit rate : 58.9 kb/s
Count of elements : 6
Stream size : 59.7 KiB (0%)
Title : English-FORCED-PGS
Language : English
Default : No
Forced : No

Text #4
ID : 7
Format : PGS
Muxing mode : zlib
Codec ID : S_HDMV/PGS
Codec ID/Info : Picture based subtitle format used on BDs/HD-DVDs
Duration : 1 h 54 min
Bit rate : 27.8 kb/s
Count of elements : 2456
Stream size : 22.8 MiB (0%)
Title : English-PGS
Language : English
Default : No
Forced : No

Text #5
ID : 8
Format : PGS
Muxing mode : zlib
Codec ID : S_HDMV/PGS
Codec ID/Info : Picture based subtitle format used on BDs/HD-DVDs
Duration : 1 h 54 min
Bit rate : 29.8 kb/s
Count of elements : 2658
Stream size : 24.4 MiB (0%)
Title : English-SDH-PGS
Language : English
Default : No
Forced : No

Text #6
ID : 9
Format : PGS
Muxing mode : zlib
Codec ID : S_HDMV/PGS
Codec ID/Info : Picture based subtitle format used on BDs/HD-DVDs
Duration : 1 h 55 min
Bit rate : 21.2 kb/s
Count of elements : 1992
Stream size : 17.5 MiB (0%)
Title : Danish-PGS
Language : Danish
Default : No
Forced : No

Text #7
ID : 10
Format : PGS
Muxing mode : zlib
Codec ID : S_HDMV/PGS
Codec ID/Info : Picture based subtitle format used on BDs/HD-DVDs
Duration : 1 h 56 min
Bit rate : 20.6 kb/s
Count of elements : 1972
Stream size : 17.2 MiB (0%)
Title : Finnish-PGS
Language : Finnish
Default : No
Forced : No

Text #8
ID : 11
Format : PGS
Muxing mode : zlib
Codec ID : S_HDMV/PGS
Codec ID/Info : Picture based subtitle format used on BDs/HD-DVDs
Duration : 1 h 55 min
Bit rate : 28.8 kb/s
Count of elements : 2508
Stream size : 23.8 MiB (0%)
Title : French-PGS
Language : French
Default : No
Forced : No

Text #9
ID : 12
Format : PGS
Muxing mode : zlib
Codec ID : S_HDMV/PGS
Codec ID/Info : Picture based subtitle format used on BDs/HD-DVDs
Duration : 1 h 56 min
Bit rate : 20.9 kb/s
Count of elements : 1988
Stream size : 17.3 MiB (0%)
Title : French-PGS
Language : French
Default : No
Forced : No

Text #10
ID : 13
Format : PGS
Muxing mode : zlib
Codec ID : S_HDMV/PGS
Codec ID/Info : Picture based subtitle format used on BDs/HD-DVDs
Duration : 1 h 55 min
Bit rate : 26.0 kb/s
Count of elements : 1738
Stream size : 21.4 MiB (0%)
Title : German-PGS
Language : German
Default : No
Forced : No

Text #11
ID : 14
Format : PGS
Muxing mode : zlib
Codec ID : S_HDMV/PGS
Codec ID/Info : Picture based subtitle format used on BDs/HD-DVDs
Duration : 1 h 55 min
Bit rate : 20.3 kb/s
Count of elements : 1988
Stream size : 16.8 MiB (0%)
Title : Dutch-PGS
Language : Dutch
Default : No
Forced : No

Text #12
ID : 15
Format : PGS
Muxing mode : zlib
Codec ID : S_HDMV/PGS
Codec ID/Info : Picture based subtitle format used on BDs/HD-DVDs
Duration : 1 h 54 min
Bit rate : 18.3 kb/s
Count of elements : 1990
Stream size : 15.0 MiB (0%)
Title : Norwegian-PGS
Language : Norwegian
Default : No
Forced : No

Text #13
ID : 16
Format : PGS
Muxing mode : zlib
Codec ID : S_HDMV/PGS
Codec ID/Info : Picture based subtitle format used on BDs/HD-DVDs
Duration : 1 h 56 min
Bit rate : 26.7 kb/s
Count of elements : 2386
Stream size : 22.2 MiB (0%)
Title : Japanese-PGS
Language : Japanese
Default : No
Forced : No

Text #14
ID : 17
Format : PGS
Muxing mode : zlib
Codec ID : S_HDMV/PGS
Codec ID/Info : Picture based subtitle format used on BDs/HD-DVDs
Duration : 1 h 56 min
Bit rate : 26.9 kb/s
Count of elements : 1926
Stream size : 22.3 MiB (0%)
Title : Spanish-PGS
Language : Spanish
Default : No
Forced : No

Text #15
ID : 18
Format : PGS
Muxing mode : zlib
Codec ID : S_HDMV/PGS
Codec ID/Info : Picture based subtitle format used on BDs/HD-DVDs
Duration : 1 h 54 min
Bit rate : 26.6 kb/s
Count of elements : 2508
Stream size : 21.8 MiB (0%)
Title : Spanish-PGS
Language : Spanish
Default : No
Forced : No

Text #16
ID : 19
Format : PGS
Muxing mode : zlib
Codec ID : S_HDMV/PGS
Codec ID/Info : Picture based subtitle format used on BDs/HD-DVDs
Duration : 1 h 55 min
Bit rate : 27.8 kb/s
Count of elements : 1734
Stream size : 22.9 MiB (0%)
Title : Turkish-PGS
Language : Turkish
Default : No
Forced : No

Menu
00:00:00.000 : en:The American Literary Historical Society
00:09:33.000 : en:Out To Lunch
00:19:01.000 : en:Condor
00:27:45.000 : en:The Ansonia Hotel
00:33:26.000 : en:Still In Flight
00:40:45.000 : en:Same Safe Quiet Time
00:52:30.000 : en:Sam's Apartment
01:00:10.000 : en:Lonely Pictures
01:09:40.000 : en:The Mailman
01:19:47.000 : en:Sparrow Hawk
01:25:27.000 : en:The Suspicion Business
01:28:52.000 : en:Leonard Atwood
01:36:33.000 : en:Fine Qualities
01:41:24.000 : en:Oil Fields
01:45:54.000 : en:For That Day
01:51:09.000 : en:Telling Stories





1 个附件 售价 大小 下载 时间

Three.Days.of.the.Condor.1975.2160p.BluRay.x264.8bit.SDR.DTS-HD.MA.5.1-SWTYBLZ.zip 0 金币 132.60K 483 次 2月前

#1楼
发帖时间:2020-11-18 15:10:38   |   回复数:1
kola13
武林盟主
感谢分享
2月前 #2楼
游客组