fg603603
武林盟主

[2014] [日本] [惊悚] [BD-1080P] 要听神明的话 As.the.Gods.Will.2014.JAPANESE.1080p.BluRay.x264.DTS-WiKi 8.70GB

-->

帖子完整标题:要听神明的话 As.the.Gods.Will.2014.JAPANESE.1080p.BluRay.x264.DTS-WiKi 8.70GB



◎译  名 要听神明的话/As the Gods Will/Kamisama no iu t?ri/如神明之言/诚如神之所说
◎片  名 神さまの言うとおり
◎年  代 2014
◎产  地 日本
◎类  别 惊悚 / 恐怖
◎语  言 日语
◎上映日期 2014-10-18(罗马电影节) / 2014-11-15(日本)
◎IMDb评分 6.5/10 from 4464 users
◎IMDb链接 https://www.imdb.com/title/tt3354222/
◎豆瓣评分 6.6/10 from 27181 users
◎豆瓣链接 https://movie.douban.com/subject/25777512/
◎片  长 117分钟
◎导  演 三池崇史 Takashi Miike
◎主  演 福士苍汰 S?ta Fukushi
      山崎纮菜 Hirona Yamazaki
      神木隆之介 Ry?nosuke Kamiki
      染谷将太 Sh?ta Sometani
      优希美青 Mio Yuki
      大森南朋 Nao Omori
      中川雅也 Lily Franky
      前田敦子 Atsuko Maeda
      水田山葵 Wasabi Mizuta
      山崎努 Tsutomu Yamazaki
      村上虹郎 Nijiro Murakami
      中川可菜 Kana Nakagawa
      山下永夏 Haruka Yamashita
      永井響 Kyo Nagai
      高岛礼子 Reiko Takashima
      喜多阳子 Kita Youko
      萩原实里 Minori Hagiwara
      樱田通 Dori Sakurada
      北村雅英 Tommy's Masa

◎标  签 日本 | 惊悚 | 日本电影 | 三池崇史 | 恐怖 | 血腥 | 电影 | 神木隆之介

◎简  介

  对当下的生活倍感无聊和失望的高中生高畑瞬(福士苍汰 饰),从没想到人生会发生如此可怕的巨变。课堂上老师的脑袋突然爆开,紧接着会说话的达摩不倒翁出现在讲桌上,逼迫着惊慌失措的学生们玩起了“一二三不许动”。经过数轮血腥较量,瞬成为班内唯一的幸存者,他跌跌撞撞逃出教室,遇到了也从死亡线上暂时逃脱的青梅竹马秋元依智香(山崎紘菜 饰)。两人在寻找出路时撞进了体育馆,谁知这里正是下一轮游戏的舞台。未过多久,巨大的招财猫(前田敦子 配音)出现,和幸存者们玩起了抓老鼠的死亡游戏。考量体力、智力和想象力的关卡连番到来,瞬、依智香还有周身散发着死神气息的天谷武(神木隆之介 饰)迎接着命运的巨变……
  
  本片根据金城宗幸(原作)、藤村绯二(作画)的同名漫画的第一部改编。

◎获奖情况

  第38届日本电影学院奖 ?(2015)
  最佳新人 福士苍汰

Video
ID : 1
Format : AVC
Format/Info : Advanced Video Codec
Format profile : [email protected]
Format settings, CABAC : Yes
Format settings, ReFrames : 5 frames
Codec ID : V_MPEG4/ISO/AVC
Duration : 1h 56mn
Bit rate : 9 000 Kbps
Width : 1 920 pixels
Height : 804 pixels
Display aspect ratio : 2.40:1
Frame rate mode : Constant
Frame rate : 23.976 fps
Color space : YUV
Chroma subsampling : 4:2:0
Bit depth : 8 bits
Scan type : Progressive
Bits/(Pixel*Frame) : 0.243
Stream size : 7.20 GiB (84%)
Writing library : x264 core 129 r2245+704+36 8e61944 tMod+MixAQ [[email protected]:2:0 X86_64]
Encoding settings : cabac=1 / ref=5 / deblock=1:-3:-3 / analyse=0x3:0x133 / me=umh / subme=11 / psy=1 / fade_compensate=0.00 / psy_rd=1.05:0.10 / mixed_ref=1 / me_range=64 / chroma_me=1 / trellis=2 / 8x8dct=1 / cqm=0 / deadzone=21,11 / fast_pskip=0 / chroma_qp_offset=-3 / threads=12 / lookahead_threads=2 / sliced_threads=0 / nr=0 / decimate=0 / interlaced=0 / bluray_compat=0 / constrained_intra=0 / fgo=0 / bframes=10 / b_pyramid=2 / b_adapt=2 / b_bias=0 / direct=3 / weightb=1 / open_gop=0 / weightp=2 / keyint=250 / keyint_min=23 / scenecut=40 / intra_refresh=0 / rc_lookahead=80 / rc=2pass / mbtree=1 / bitrate=9000 / ratetol=1.0 / qcomp=0.70 / qpmin=0 / qpmax=69 / qpstep=4 / cplxblur=20.0 / qblur=0.5 / ip_ratio=1.40 / aq=1 / aq-strength=0.85 / aq-sensitivity=10.00 / aq-ifactor=1.00 / aq-pfactor=1.00 / aq-bfactor=1.00 / aq2=0
Language : Japanese
Default : Yes
Forced : No
DURATION : 01:56:58.804000000
NUMBER_OF_FRAMES : 168283
NUMBER_OF_BYTES : 7896374332
_STATISTICS_WRITING_APP : mkvmerge v7.9.0 (\'Birds\') 64bit
_STATISTICS_WRITING_DATE_UTC : 2015-05-17 16:24:55
_STATISTICS_TAGS : BPS DURATION NUMBER_OF_FRAMES NUMBER_OF_BYTES

Audio
ID : 2
Format : DTS
Format/Info : Digital Theater Systems
Mode : 16
Format settings, Endianness : Big
Codec ID : A_DTS
Duration : 1h 56mn
Bit rate mode : Constant
Bit rate : 1 509 Kbps
Channel(s) : 6 channels
Channel positions : Front: L C R, Side: L R, LFE
Sampling rate : 48.0 KHz
Bit depth : 24 bits
Compression mode : Lossy
Stream size : 1.23 GiB (14%)
Language : Japanese
Default : Yes
Forced : No

Text #1
ID : 3
Format : ASS
Codec ID : S_TEXT/ASS
Codec ID/Info : Advanced Sub Station Alpha
Compression mode : Lossless
Title : Simplified
Language : Chinese
Default : Yes
Forced : No

Text #2
ID : 4
Format : ASS
Codec ID : S_TEXT/ASS
Codec ID/Info : Advanced Sub Station Alpha
Compression mode : Lossless
Title : Traditional
Language : Chinese
Default : No
Forced : No

Menu
00:00:00.000 : en:00:00:00.000
00:11:08.918 : en:00:11:08.918
00:16:17.893 : en:00:16:17.893
00:23:03.924 : en:00:23:03.924
00:35:44.350 : en:00:35:44.350
00:53:08.268 : en:00:53:08.268
01:03:14.040 : en:01:03:14.040
01:13:12.638 : en:01:13:12.638
01:21:36.349 : en:01:21:36.349
01:30:35.972 : en:01:30:35.972
01:44:04.947 : en:01:44:04.947
01:51:22.175 : en:01:51:22.175





1 个附件 售价 大小 下载 时间

As.the.Gods.Will.2014.JAPANESE.1080p.BluRay.x264.DTS-WiKi.zip 0 金币 22.62K 686 次 2月前

#1楼
发帖时间:2020-11-18 10:23:54   |   回复数:0
游客组