fg603603
武林盟主

[2014] [日本] [爱情] [BD-1080P] 幸运情人草 Clover.2014.JAPANESE.1080p.BluRay.x264-WiKi 8.19GB

-->

帖子完整标题:幸运情人草 Clover.2014.JAPANESE.1080p.BluRay.x264-WiKi 8.19GB



◎译  名 幸运情人草/Clover
◎片  名 クローバー
◎年  代 2014
◎产  地 日本
◎类  别 爱情
◎语  言 日语
◎上映日期 2014-11-01(日本)
◎IMDb评分 6.2/10 from 204 users
◎IMDb链接 https://www.imdb.com/title/tt3594796/
◎豆瓣评分 5.5/10 from 4376 users
◎豆瓣链接 https://movie.douban.com/subject/25845399/
◎片  长 119分钟
◎导  演 古泽健 Takeshi Furusawa
◎主  演 武井咲 Emi Takei
      大仓忠义 Okura Tadayoshi
      永山绚斗 Kento Nagayama
      夏菜 Natsuna
      上地雄辅 Y?suke Kamiji
      木南晴夏 Haruka Kinami
      水泽绘玲奈 Erena Mizusawa
      光浦靖子 Yasuko Mitsuura
      铃木拓 Taku Suzuki
      柴田理惠 Rie Shibata
      宍户开 Kai Shishido
      西村雅彦 Masahiko Nishimura

◎标  签 日本 | 日本电影 | 武井咲 | 爱情 | 漫画改编 | 日影 | 2014 | 大仓忠义

◎简  介

  供职于东洋酒店企划部的OL铃木沙耶(武井咲 饰)已经度过了八年的感情空窗期,学生时代她和青梅竹马相恋,无缘相守的二人一度结伴私奔,最终仍不得不面对分离的命运。如今初恋樋野时和(永山绚斗 饰)已成为小有名气的影视明星,而沙耶则在抖S上司柘植晓(大仓忠义 饰)的折磨下疲于奔命。柘植毕业于名门学府,他被称为精英中的精英。谁知这个和沙耶有着天壤之别的男子,就在毫无征兆的情况下突然向沙耶提出交往的要求。这对恶缘男女由此展开别别扭扭的交往,而他们的恋情也遇到了各种各样的诱惑和挑战……
  
  本片根据漫画家稚野鸟子累计销售量超过920万册的人气作品改编。

Video
ID : 1
Format : AVC
Format/Info : Advanced Video Codec
Format profile : [email protected]
Format settings, CABAC : Yes
Format settings, ReFrames : 5 frames
Codec ID : V_MPEG4/ISO/AVC
Duration : 1h 59mn
Bit rate : 9 000 Kbps
Width : 1 920 pixels
Height : 802 pixels
Display aspect ratio : 2.40:1
Frame rate mode : Constant
Frame rate : 23.976 fps
Color space : YUV
Chroma subsampling : 4:2:0
Bit depth : 8 bits
Scan type : Progressive
Bits/(Pixel*Frame) : 0.244
Stream size : 7.38 GiB (91%)
Writing library : x264 core 129 r2245+704+36 8e61944 tMod+MixAQ [[email protected]:2:0 X86_64]
Encoding settings : cabac=1 / ref=5 / deblock=1:-3:-3 / analyse=0x3:0x133 / me=umh / subme=11 / psy=1 / fade_compensate=0.00 / psy_rd=1.05:0.10 / mixed_ref=1 / me_range=64 / chroma_me=1 / trellis=2 / 8x8dct=1 / cqm=0 / deadzone=21,11 / fast_pskip=0 / chroma_qp_offset=-3 / threads=18 / lookahead_threads=3 / sliced_threads=0 / nr=0 / decimate=0 / interlaced=0 / bluray_compat=0 / constrained_intra=0 / fgo=0 / bframes=10 / b_pyramid=2 / b_adapt=2 / b_bias=0 / direct=3 / weightb=1 / open_gop=0 / weightp=2 / keyint=250 / keyint_min=23 / scenecut=40 / intra_refresh=0 / rc_lookahead=80 / rc=2pass / mbtree=1 / bitrate=9000 / ratetol=1.0 / qcomp=0.70 / qpmin=0 / qpmax=69 / qpstep=4 / cplxblur=20.0 / qblur=0.5 / ip_ratio=1.40 / aq=3 / aq-strength=0.85 / aq-sensitivity=10.00 / aq-ifactor=1.00 / aq-pfactor=1.00 / aq-bfactor=1.00 / aq2=0
Language : Japanese
Default : Yes
Forced : No
DURATION : 01:59:46.179000000
NUMBER_OF_FRAMES : 172296
NUMBER_OF_BYTES : 8083569500
_STATISTICS_WRITING_APP : mkvmerge v7.9.0 (\'Birds\') 64bit
_STATISTICS_WRITING_DATE_UTC : 2015-05-16 10:25:59
_STATISTICS_TAGS : BPS DURATION NUMBER_OF_FRAMES NUMBER_OF_BYTES

Audio
ID : 2
Format : AC-3
Format/Info : Audio Coding 3
Mode extension : CM (complete main)
Format settings, Endianness : Big
Codec ID : A_AC3
Duration : 1h 59mn
Bit rate mode : Constant
Bit rate : 640 Kbps
Channel(s) : 6 channels
Channel positions : Front: L C R, Side: L R, LFE
Sampling rate : 48.0 KHz
Bit depth : 16 bits
Compression mode : Lossy
Stream size : 548 MiB (7%)
Language : Japanese
Default : Yes
Forced : No

Text #1
ID : 3
Format : ASS
Codec ID : S_TEXT/ASS
Codec ID/Info : Advanced Sub Station Alpha
Compression mode : Lossless
Title : Simplified
Language : Chinese
Default : Yes
Forced : No

Text #2
ID : 4
Format : ASS
Codec ID : S_TEXT/ASS
Codec ID/Info : Advanced Sub Station Alpha
Compression mode : Lossless
Title : Traditional
Language : Chinese
Default : No
Forced : No

Menu
00:00:00.000 : en:00:00:00.000
00:07:19.063 : en:00:07:19.063
00:15:42.232 : en:00:15:42.232
00:23:52.681 : en:00:23:52.681
00:31:29.888 : en:00:31:29.888
00:38:41.027 : en:00:38:41.027
00:45:15.129 : en:00:45:15.129
00:52:31.857 : en:00:52:31.857
00:57:03.420 : en:00:57:03.420
01:08:44.245 : en:01:08:44.245
01:18:06.890 : en:01:18:06.890
01:25:24.911 : en:01:25:24.911
01:33:57.131 : en:01:33:57.131
01:40:44.788 : en:01:40:44.788
01:47:21.560 : en:01:47:21.560
01:55:35.720 : en:01:55:35.720





1 个附件 售价 大小 下载 时间

Clover.2014.JAPANESE.1080p.BluRay.x264-WiKi.zip 0 金币 21.27K 399 次 2月前

#1楼
发帖时间:2020-11-18 10:21:06   |   回复数:0
游客组