fg603603
武林盟主

[2014] [日本] [剧情] [BD-1080P] 生活艰难也许快乐 Pikanchi.Half.Life.is.Hard.Maybe.Happy.2014.JAPANESE.1080p.BluRay.x264.

-->

帖子完整标题:生活艰难也许快乐 Pikanchi.Half.Life.is.Hard.Maybe.Happy.2014.JAPANESE.1080p.BluRay.x264.DTS-WiKi 10.41GB



◎译  名 生活艰难也许快乐/Pikanchi Half Life is Hard Maybe Happy
◎片  名 ピカ☆★☆ンチ LIFE IS HARD たぶん HAPPY
◎年  代 2014
◎产  地 日本
◎类  别 剧情 / 喜剧
◎语  言 日语
◎上映日期 2014-08-01(日本)
◎IMDb评分 7/10 from 42 users
◎IMDb链接 https://www.imdb.com/title/tt3914706/
◎豆瓣评分 7.5/10 from 5453 users
◎豆瓣链接 https://movie.douban.com/subject/25905892/
◎片  长 113分钟
◎导  演 木村尚 Hisashi Kimura / 堤幸彦 Yukihiko Tsutsumi
◎编  剧 河原雅彦 Masahiko Kawahara
◎主  演 相叶雅纪 Masaki Aiba
      松本润 Jun Matsumoto
      二宫和也 Kazunari Ninomiya
      大野智 Satoshi Ohno
      樱井翔 Sh? Sakurai
      水川麻美 Asami Mizukawa
      上岛龙兵 Ry?hei Ueshima
      松原智惠子 Chieko Matsubara
      秋山菜津子 Natsuko Akiyama
      井之原快彦 Yoshihiko Inohara
      绪方义博 Denden
      宫地真绪 Mao Miyaji
      近江谷太朗 Oumiya Tarou
      半海一晃 Kazuaki Hankai
      上地春奈 Haruna Uechi
      平泽宏宏路 Kokoro Hirasawa

◎标  签 日本 | 嵐 | 日本电影 | 大野智 | 二宫和也 | 櫻井翔 | 松本潤 | 日影

◎简  介

  自上次一别已经过了八年时间,因为某件事,当年的好朋友贵田春彦(大野智 饰)、二叶廉太郎(松本润 饰)、冈野瞬(相叶雅纪 饰)和鸭川忠(樱井翔 饰)再度聚首。虽然恩田琢磨(二宫和也 饰)暂时缺席,不过并不妨碍四人坐在裸男酒馆里叙旧畅谈。留着夸张胡子的春彦娶了前女友的妈妈,头上绿帽光芒四射;忠总想给儿子注入男子汉气概,但和妻子的观念相左;廉太郎娶了奇葩的冲绳女郎,开起了蛋糕连锁店;瞬在事业上兜兜转转,突发奇想闯出自己的品牌。未过多久,一身奇怪打扮的琢磨带着庞大的家族成员加入进来。
  
  而今成为社会人年过三十的好朋友们,此时此刻又有着怎样的心情呢?

Video
ID : 1
Format : AVC
Format/Info : Advanced Video Codec
Format profile : [email protected]
Format settings, CABAC : Yes
Format settings, ReFrames : 4 frames
Codec ID : V_MPEG4/ISO/AVC
Duration : 1h 53mn
Bit rate : 11.5 Mbps
Width : 1 920 pixels
Height : 1 036 pixels
Display aspect ratio : 1.85:1
Frame rate mode : Constant
Frame rate : 23.976 fps
Color space : YUV
Chroma subsampling : 4:2:0
Bit depth : 8 bits
Scan type : Progressive
Bits/(Pixel*Frame) : 0.241
Stream size : 8.91 GiB (86%)
Writing library : x264 core 129 r2245+704+36 8e61944 tMod+MixAQ [[email protected]:2:0 X86_64]
Encoding settings : cabac=1 / ref=4 / deblock=1:-3:-3 / analyse=0x3:0x133 / me=umh / subme=11 / psy=1 / fade_compensate=0.00 / psy_rd=1.05:0.10 / mixed_ref=1 / me_range=32 / chroma_me=1 / trellis=2 / 8x8dct=1 / cqm=0 / deadzone=21,11 / fast_pskip=0 / chroma_qp_offset=-3 / threads=18 / lookahead_threads=3 / sliced_threads=0 / nr=0 / decimate=0 / interlaced=0 / bluray_compat=0 / constrained_intra=0 / fgo=0 / bframes=10 / b_pyramid=2 / b_adapt=2 / b_bias=0 / direct=3 / weightb=1 / open_gop=0 / weightp=2 / keyint=250 / keyint_min=23 / scenecut=40 / intra_refresh=0 / rc_lookahead=80 / rc=2pass / mbtree=1 / bitrate=11500 / ratetol=1.0 / qcomp=0.70 / qpmin=0 / qpmax=69 / qpstep=4 / cplxblur=20.0 / qblur=0.5 / ip_ratio=1.40 / aq=3 / aq-strength=0.85 / aq-sensitivity=10.00 / aq-ifactor=1.00 / aq-pfactor=1.00 / aq-bfactor=1.00 / aq2=0
Language : Japanese
Default : Yes
Forced : No
Matrix coefficients : BT.709
Color range : Limited

Audio
ID : 2
Format : DTS
Format/Info : Digital Theater Systems
Mode : 16
Format settings, Endianness : Big
Codec ID : A_DTS
Duration : 1h 53mn
Bit rate mode : Constant
Bit rate : 1 509 Kbps
Channel(s) : 6 channels
Channel positions : Front: L C R, Side: L R, LFE
Sampling rate : 48.0 KHz
Bit depth : 16 bits
Compression mode : Lossy
Stream size : 1.19 GiB (12%)
Language : Japanese
Default : Yes
Forced : No

Text #1
ID : 3
Format : ASS
Codec ID : S_TEXT/ASS
Codec ID/Info : Advanced Sub Station Alpha
Compression mode : Lossless
Title : Simplified
Language : Chinese
Default : Yes
Forced : No

Text #2
ID : 4
Format : ASS
Codec ID : S_TEXT/ASS
Codec ID/Info : Advanced Sub Station Alpha
Compression mode : Lossless
Title : Traditional
Language : Chinese
Default : No
Forced : No

Menu
00:00:00.000 : en:00:00:00.000
00:08:24.503 : en:00:08:24.503
00:16:47.506 : en:00:16:47.506
00:28:35.422 : en:00:28:35.422
00:41:36.827 : en:00:41:36.827
00:44:20.324 : en:00:44:20.324
00:52:23.140 : en:00:52:23.140
00:55:41.337 : en:00:55:41.337
01:01:55.878 : en:01:01:55.878
01:15:13.175 : en:01:15:13.175
01:19:45.489 : en:01:19:45.489
01:33:35.318 : en:01:33:35.318
01:44:40.440 : en:01:44:40.440





1 个附件 售价 大小 下载 时间

Pikanchi.Half.Life.is.Hard.Maybe.Happy.2014.JAPANESE.1080p.BluRay.x264.DTS-WiKi.zip 0 金币 52.80K 350 次 2月前

#1楼
发帖时间:2020-11-18 10:05:50   |   回复数:0
游客组