fg603603
武林盟主

[2014] [日本] [剧情] [BD-1080P] 不可思议的海岸物语 Cape.Nostalgia.2014.JAPANESE.1080p.BluRay.x264-WiKi 17.09GB

-->

帖子完整标题:不可思议的海岸物语 Cape.Nostalgia.2014.JAPANESE.1080p.BluRay.x264-WiKi 17.09GB



◎译  名 不可思议的海岸物语/Cape Nostalgia/Fushigi na misaki no monogatari/Strange Cape's Story
◎片  名 ふしぎな岬の物語
◎年  代 2014
◎产  地 日本
◎类  别 剧情
◎语  言 日语
◎上映日期 2014-08-29(蒙特利尔电影节) / 2014-10-11(日本)
◎IMDb评分 6.2/10 from 160 users
◎IMDb链接 https://www.imdb.com/title/tt3413692/
◎豆瓣评分 6.6/10 from 1447 users
◎豆瓣链接 https://movie.douban.com/subject/25795311/
◎片  长 117分钟
◎导  演 成岛出 Izuru Narushima
◎编  剧 安倍照雄 Teruo Abe
◎主  演 吉永小百合 Sayuri Yoshinaga
      阿部宽 Hiroshi Abe
      竹内结子 Y?ko Takeuchi
      笑福亭鹤瓶 Tsurubei Shofukutei
      笹野高史 Takashi Sasano
      小池荣子 Eiko Koike
      井浦新 ARATA
      中原丈雄 Takeo Nakahara
      石桥莲司 Renji Ishibashi
      米仓齐加年 Masakane Yonekura
      近藤公园 K?en Kond?
      矢野圣人 Masato Yano
      矢柴俊博 Toshihiro Yashiba
      不破万作 Mansaku Fuwa
      茂吕师冈 Moro Morooka
      岛田久作 Ky?saku Shimada
      加藤赖 Rai Kato

◎标  签 日本 | 日本电影 | 阿部宽 | 吉永小百合 | 竹内结子 | 2014 | 剧情 | 日影

◎简  介

  在一个毗邻大海的海岬顶端,端庄可亲的柏木悦子(吉永小百合 饰)独自经营一间小小的咖啡屋。不成器的外甥浩司(阿部宽 饰)住在附近,每天和悦子乘船打来清水,烹制咖啡,迎接新一天以及常客们的到来。三十年来爱慕着悦子的谷先生(笑福亭鹤瓶 饰)、因某事和女儿(竹内结子 饰)关系隔膜的龙崎德三郎(笹野高史 饰)、互相看不顺眼的住持和神父,都为咖啡馆增添了无限的乐趣。此外,远道而来的单亲父亲(井浦新 饰)和为生计所迫的小偷(片冈龟藏 饰),在与悦子邂逅后也重新找到前进的方向。永远笑容满满的悦子,似乎坚守着某人的到来……
  
  本片根据森泽明夫的小说《守护彩虹的海岬咖啡屋》改编,小说以真实存在的咖啡屋和店主人为蓝本创作。

◎获奖情况

  第38届日本电影学院奖 ?(2015)
  最佳影片(提名)
  最佳导演(提名) 成岛出
  最佳编剧(提名) 加藤正人?/?安倍照雄
  最佳男主角(提名) 阿部宽
  最佳女主角(提名) 吉永小百合
  最佳男配角(提名) 笑福亭鹤瓶
  最佳女配角(提名) 竹内结子
  最佳配乐(提名)
  最佳摄影(提名)
  最佳美术指导(提名)
  最佳照明(提名)
  最佳录音(提名)
  最佳剪辑(提名)
  
  第38届蒙特利尔世界电影节 ?(2014)
  美洲大奖(提名) 成岛出

Video
ID : 1
Format : AVC
Format/Info : Advanced Video Codec
Format profile : [email protected]
Format settings, CABAC : Yes
Format settings, ReFrames : 4 frames
Codec ID : V_MPEG4/ISO/AVC
Duration : 1h 57mn
Bit rate : 20.1 Mbps
Width : 1 920 pixels
Height : 1 036 pixels
Display aspect ratio : 1.85:1
Frame rate mode : Constant
Frame rate : 23.976 fps
Color space : YUV
Chroma subsampling : 4:2:0
Bit depth : 8 bits
Scan type : Progressive
Bits/(Pixel*Frame) : 0.421
Stream size : 16.1 GiB (95%)
Writing library : x264 core 129 r2245+704+36 8e61944 tMod+MixAQ [[email protected]:2:0 X86_64]
Encoding settings : cabac=1 / ref=4 / deblock=1:-3:-3 / analyse=0x3:0x133 / me=umh / subme=11 / psy=1 / fade_compensate=0.00 / psy_rd=1.05:0.10 / mixed_ref=1 / me_range=32 / chroma_me=1 / trellis=2 / 8x8dct=1 / cqm=0 / deadzone=21,11 / fast_pskip=0 / chroma_qp_offset=-3 / threads=18 / lookahead_threads=3 / sliced_threads=0 / nr=0 / decimate=0 / interlaced=0 / bluray_compat=0 / constrained_intra=0 / fgo=0 / bframes=10 / b_pyramid=2 / b_adapt=2 / b_bias=0 / direct=3 / weightb=1 / open_gop=0 / weightp=2 / keyint=250 / keyint_min=23 / scenecut=40 / intra_refresh=0 / rc_lookahead=80 / rc=2pass / mbtree=1 / bitrate=20070 / ratetol=1.0 / qcomp=0.75 / qpmin=0 / qpmax=69 / qpstep=4 / cplxblur=20.0 / qblur=0.5 / ip_ratio=1.40 / aq=3 / aq-strength=0.85 / aq-sensitivity=10.00 / aq-ifactor=1.00 / aq-pfactor=1.00 / aq-bfactor=1.00 / aq2=0
Language : Japanese
Default : Yes
Forced : No

Audio
ID : 2
Format : AC-3
Format/Info : Audio Coding 3
Mode extension : CM (complete main)
Format settings, Endianness : Big
Codec ID : A_AC3
Duration : 1h 57mn
Bit rate mode : Constant
Bit rate : 640 Kbps
Channel(s) : 6 channels
Channel positions : Front: L C R, Side: L R, LFE
Sampling rate : 48.0 KHz
Bit depth : 16 bits
Compression mode : Lossy
Stream size : 537 MiB (3%)
Language : Japanese
Default : Yes
Forced : No

Text #1
ID : 3
Format : ASS
Codec ID : S_TEXT/ASS
Codec ID/Info : Advanced Sub Station Alpha
Compression mode : Lossless
Title : Simplified
Language : Chinese
Default : Yes
Forced : No

Text #2
ID : 4
Format : ASS
Codec ID : S_TEXT/ASS
Codec ID/Info : Advanced Sub Station Alpha
Compression mode : Lossless
Title : Traditional
Language : Chinese
Default : No
Forced : No

Menu
00:00:00.000 : en:00:00:00.000
00:04:50.331 : en:00:04:50.331
00:13:00.571 : en:00:13:00.571
00:21:47.681 : en:00:21:47.681
00:31:17.792 : en:00:31:17.792
00:39:07.845 : en:00:39:07.845
00:46:13.353 : en:00:46:13.353
00:56:15.205 : en:00:56:15.205
01:08:45.621 : en:01:08:45.621
01:23:39.556 : en:01:23:39.556
01:34:48.224 : en:01:34:48.224
01:47:12.467 : en:01:47:12.467





1 个附件 售价 大小 下载 时间

Cape.Nostalgia.2014.JAPANESE.1080p.BluRay.x264-WiKi.zip 0 金币 86.14K 399 次 2月前

#1楼
发帖时间:2020-11-18 09:57:04   |   回复数:0
游客组