fg603603
武林盟主

[2014] [日本] [剧情] [BD-1080P] 黎明的沙耶 Twilight.Saya.in.Sasara.2014.JAPANESE.1080p.BluRay.x264.DTS-WiKi 12.61GB

-->

帖子完整标题:黎明的沙耶 Twilight.Saya.in.Sasara.2014.JAPANESE.1080p.BluRay.x264.DTS-WiKi 12.61GB



◎译  名 黎明的沙耶/Twilight Sasara Saya/再一次?爱你(港)/再一次说爱你(台)/奇迹小镇/雅露的黎明
◎片  名 トワイライト ささらさや
◎年  代 2014
◎产  地 日本
◎类  别 剧情
◎语  言 日语
◎上映日期 2014-11-08(日本)
◎IMDb评分 5.6/10 from 161 users
◎IMDb链接 https://www.imdb.com/title/tt3684490/
◎豆瓣评分 7.0/10 from 3383 users
◎豆瓣链接 https://movie.douban.com/subject/25870671/
◎片  长 114分钟
◎导  演 深川荣洋 Yoshihiro Fukagawa
◎编  剧 山室有纪子 Yukiko Yamamuro / 深川荣洋 Yoshihiro Fukagawa
◎主  演 新垣结衣 Yui Aragaki
      大泉洋 Y? ?izumi
      中村苍 Aoi Nakamura
      福岛莉拉 Rila Fukushima
      鹤野刚士 Takeshi Tsuruno
      波乃久里子 Kuriko Namino
      藤田弓子 Yumiko Fujita
      小松政夫 Masao Komatsu
      石桥凌 Ryo Ishibashi
      富司纯子 Sumiko Fuji
      寺田心 Terada Kokoro

◎标  签 新垣结衣 | 日本 | 日本电影 | 温情 | 新垣結衣 | 大泉洋 | 2014 | 爱情

◎简  介

  毫无名气的落语家优太郎(大泉洋 饰),其人生最大的幸福就是认识了美丽善良的妻子沙耶(新垣结衣 饰)。虽然生活贫苦,不过伴随着儿子优介呱呱落地,他们俨然正朝着幸福的彼岸航行。怎奈命运无常,优太郎在一场车祸中死去。由于对妻儿太过牵挂,他并没有往生,而是以幽灵的状态盘桓在沙耶身边。葬礼上与优太郎绝交许久的父亲(石桥凌 饰)突然出现,而优太郎情急之中竟然附体在师父的身上,并且劝告沙耶尽快逃跑。慌不择路的沙耶带着孩子来到了一个名叫佐佐良的偏僻小镇。在这里她遇到了各种各样性格满满的人,优太郎也一次又一次附体在他人身上回到妻儿身边。母女的未来将会如何?
  
  本片根据加纳朋子的小说《佐佐良沙耶》改编。

Video
ID : 1
Format : AVC
Format/Info : Advanced Video Codec
Format profile : [email protected]
Format settings, CABAC : Yes
Format settings, ReFrames : 4 frames
Codec ID : V_MPEG4/ISO/AVC
Duration : 1h 55mn
Bit rate : 14.0 Mbps
Width : 1 920 pixels
Height : 1 036 pixels
Display aspect ratio : 1.85:1
Frame rate mode : Constant
Frame rate : 23.976 fps
Color space : YUV
Chroma subsampling : 4:2:0
Bit depth : 8 bits
Scan type : Progressive
Bits/(Pixel*Frame) : 0.294
Stream size : 11.0 GiB (88%)
Writing library : x264 core 129 r2245+704+36 8e61944 tMod+MixAQ [[email protected]:2:0 X86_64]
Encoding settings : cabac=1 / ref=4 / deblock=1:-3:-3 / analyse=0x3:0x133 / me=umh / subme=11 / psy=1 / fade_compensate=0.00 / psy_rd=1.05:0.10 / mixed_ref=1 / me_range=64 / chroma_me=1 / trellis=2 / 8x8dct=1 / cqm=0 / deadzone=21,11 / fast_pskip=0 / chroma_qp_offset=-3 / threads=18 / lookahead_threads=3 / sliced_threads=0 / nr=0 / decimate=0 / interlaced=0 / bluray_compat=0 / constrained_intra=0 / fgo=0 / bframes=10 / b_pyramid=2 / b_adapt=2 / b_bias=0 / direct=3 / weightb=1 / open_gop=0 / weightp=2 / keyint=250 / keyint_min=23 / scenecut=40 / intra_refresh=0 / rc_lookahead=80 / rc=2pass / mbtree=1 / bitrate=14028 / ratetol=1.0 / qcomp=0.70 / qpmin=0 / qpmax=69 / qpstep=4 / cplxblur=20.0 / qblur=0.5 / ip_ratio=1.40 / aq=3 / aq-strength=0.85 / aq-sensitivity=10.00 / aq-ifactor=1.00 / aq-pfactor=1.00 / aq-bfactor=1.00 / aq2=0
Language : Japanese
Default : Yes
Forced : No

Audio
ID : 2
Format : DTS
Format/Info : Digital Theater Systems
Mode : 16
Format settings, Endianness : Big
Codec ID : A_DTS
Duration : 1h 55mn
Bit rate mode : Constant
Bit rate : 1 509 Kbps
Channel(s) : 6 channels
Channel positions : Front: L C R, Side: L R, LFE
Sampling rate : 48.0 KHz
Bit depth : 24 bits
Compression mode : Lossy
Stream size : 1.21 GiB (10%)
Language : Japanese
Default : Yes
Forced : No

Text #1
ID : 3
Format : ASS
Codec ID : S_TEXT/ASS
Codec ID/Info : Advanced Sub Station Alpha
Compression mode : Lossless
Title : Simplified
Language : Chinese
Default : Yes
Forced : No

Text #2
ID : 4
Format : ASS
Codec ID : S_TEXT/ASS
Codec ID/Info : Advanced Sub Station Alpha
Compression mode : Lossless
Title : Traditional
Language : Chinese
Default : No
Forced : No

Menu
00:00:00.000 : en:00:00:00.000
00:10:13.070 : en:00:10:13.070
00:16:09.009 : en:00:16:09.009
00:21:31.540 : en:00:21:31.540
00:29:09.122 : en:00:29:09.122
00:41:13.512 : en:00:41:13.512
00:51:52.484 : en:00:51:52.484
01:02:44.719 : en:01:02:44.719
01:18:08.308 : en:01:18:08.308
01:29:01.669 : en:01:29:01.669
01:47:06.545 : en:01:47:06.545





1 个附件 售价 大小 下载 时间

Twilight.Saya.in.Sasara.2014.JAPANESE.1080p.BluRay.x264.DTS-WiKi.zip 0 金币 63.78K 770 次 2月前

#1楼
发帖时间:2020-11-18 09:53:55   |   回复数:0
游客组