fg603603
武林盟主

[2014] [日本] [爱情] [BD-1080P] 近距离恋爱 A.Short.Distance.Relationship.2014.JAPANESE.1080p.BluRay.x264.DTS-WiKi 8.7

-->

帖子完整标题:近距离恋爱 A.Short.Distance.Relationship.2014.JAPANESE.1080p.BluRay.x264.DTS-WiKi 8.77GB



◎译  名 近距离恋爱/A Short Distance Relationship/Kinkyori ren ai
◎片  名 近キョリ恋愛
◎年  代 2014
◎产  地 日本
◎类  别 爱情
◎语  言 日语
◎上映日期 2014-10-11(日本)
◎IMDb评分 6.3/10 from 1123 users
◎IMDb链接 https://www.imdb.com/title/tt3688018/
◎豆瓣评分 6.3/10 from 46746 users
◎豆瓣链接 https://movie.douban.com/subject/25853073/
◎片  长 118分钟
◎导  演 熊泽尚人 Naoto Kumazawa
◎编  剧 Yukiko Manabe
◎主  演 山下智久 Tomohisa Yamashita
      小松菜奈 Nana Komatsu
      水川麻美 Asami Mizukawa
      小泷望 Nozomu Kotaki
      山本美月 Mizuki Yamamoto
      新井浩文 Hirofumi Arai
      古畑星夏 Seika Furuhata
      佐野和真 Sano Kazuma
      矢柴俊博 Toshihiro Yashiba
      工藤阿须加 Asuka Kud?
      椎名琴音 Kotone Shiina
      小川阿佐美 Asami Ogawa

◎标  签 山下智久 | 爱情 | 日本 | 小松菜奈 | 日本电影 | 青春 | 校园 | 日影

◎简  介

  就读于某高中的16岁的枢木润希(小松菜奈 饰)拥有极为灵光的脑瓜,虽然经常拿下全年级第一,但是不知为何她总是刻意隐藏自己的情感,旁人难以从她扑克一般的表情中看到任何情感波动,只有初中时代的好朋友娜美(山本美月 饰)才能走入润希的内心世界。在最近一次期中考试中,润希的英语成绩只有0分,这让担任班主任的樱井遥(山下智久 饰)颇为恼火,于是也不管女孩愿意与否便自顾自安排为润希补课。樱井英俊帅气,自信满满,是女学生们崇拜喜欢的对象,可是润希偏偏讨厌这个自大的家伙。为了摆脱樱井老师,她尽最大努力学习英语。然而当补课意外结束时,她终于察觉到那心早已悄然变化的情感……
  
  本片根据みきもと凜的同名漫画改编。

Video
ID : 1
Format : AVC
Format/Info : Advanced Video Codec
Format profile : [email protected]
Format settings, CABAC : Yes
Format settings, ReFrames : 5 frames
Codec ID : V_MPEG4/ISO/AVC
Duration : 1h 57mn
Bit rate : 9 000 Kbps
Width : 1 920 pixels
Height : 804 pixels
Display aspect ratio : 2.40:1
Frame rate mode : Constant
Frame rate : 23.976 fps
Color space : YUV
Chroma subsampling : 4:2:0
Bit depth : 8 bits
Scan type : Progressive
Bits/(Pixel*Frame) : 0.243
Stream size : 7.25 GiB (84%)
Writing library : x264 core 129 r2245+704+36 8e61944 tMod+MixAQ [[email protected]:2:0 X86_64]
Encoding settings : cabac=1 / ref=5 / deblock=1:-3:-3 / analyse=0x3:0x133 / me=umh / subme=11 / psy=1 / fade_compensate=0.00 / psy_rd=1.05:0.10 / mixed_ref=1 / me_range=64 / chroma_me=1 / trellis=2 / 8x8dct=1 / cqm=0 / deadzone=21,11 / fast_pskip=0 / chroma_qp_offset=-3 / threads=18 / lookahead_threads=3 / sliced_threads=0 / nr=0 / decimate=0 / interlaced=0 / bluray_compat=0 / constrained_intra=0 / fgo=0 / bframes=10 / b_pyramid=2 / b_adapt=2 / b_bias=0 / direct=3 / weightb=1 / open_gop=0 / weightp=2 / keyint=250 / keyint_min=23 / scenecut=40 / intra_refresh=0 / rc_lookahead=80 / rc=2pass / mbtree=1 / bitrate=9000 / ratetol=1.0 / qcomp=0.70 / qpmin=0 / qpmax=69 / qpstep=4 / cplxblur=20.0 / qblur=0.5 / ip_ratio=1.40 / aq=3 / aq-strength=0.85 / aq-sensitivity=10.00 / aq-ifactor=1.00 / aq-pfactor=1.00 / aq-bfactor=1.00 / aq2=0
Language : Japanese
Default : Yes
Forced : No

Audio
ID : 2
Format : DTS
Format/Info : Digital Theater Systems
Mode : 16
Format settings, Endianness : Big
Codec ID : A_DTS
Duration : 1h 57mn
Bit rate mode : Constant
Bit rate : 1 509 Kbps
Channel(s) : 6 channels
Channel positions : Front: L C R, Side: L R, LFE
Sampling rate : 48.0 KHz
Bit depth : 24 bits
Compression mode : Lossy
Stream size : 1.24 GiB (14%)
Language : Japanese
Default : Yes
Forced : No

Text #1
ID : 3
Format : ASS
Codec ID : S_TEXT/ASS
Codec ID/Info : Advanced Sub Station Alpha
Compression mode : Lossless
Title : Simplified
Language : Chinese
Default : Yes
Forced : No

Text #2
ID : 4
Format : ASS
Codec ID : S_TEXT/ASS
Codec ID/Info : Advanced Sub Station Alpha
Compression mode : Lossless
Title : Traditional
Language : Chinese
Default : No
Forced : No

Menu
00:00:00.000 : en:00:00:00.000
00:00:32.032 : en:00:00:32.032
00:10:28.461 : en:00:10:28.461
00:17:53.489 : en:00:17:53.489
00:26:15.365 : en:00:26:15.365
00:37:31.332 : en:00:37:31.332
00:44:59.363 : en:00:44:59.363
00:53:03.722 : en:00:53:03.722
00:59:46.374 : en:00:59:46.374
01:12:17.958 : en:01:12:17.958
01:24:35.361 : en:01:24:35.361
01:43:02.634 : en:01:43:02.634
01:52:58.772 : en:01:52:58.772





1 个附件 售价 大小 下载 时间

A.Short.Distance.Relationship.2014.JAPANESE.1080p.BluRay.x264.DTS-WiKi.zip 0 金币 88.46K 630 次 2月前

#1楼
发帖时间:2020-11-18 09:50:56   |   回复数:0
游客组