travismk
一代宗师

[2014] [其他] [剧情] [BD-1080P] 锡尔斯玛利亚 Clouds.of.Sils.Maria.2014.1080p.BluRay.x264-USURY 9.84GB

-->

帖子完整标题:锡尔斯玛利亚 Clouds.of.Sils.Maria.2014.1080p.BluRay.x264-USURY 9.84GB



◎译  名 锡尔斯玛利亚/Sils Maria/坐看云起时(港)/星光云寂(台)/锡尔斯玛利亚的云
◎片  名 Clouds of Sils Maria
◎年  代 2014
◎产  地 法国,德国,瑞士
◎类  别 剧情
◎语  言 英语,法语,德语,瑞士德语
◎上映日期 2014-05-23(戛纳电影节) / 2014-08-20(法国)
◎IMDb评分 6.7/10 from 27289 users
◎IMDb链接 https://www.imdb.com/title/tt2452254/
◎豆瓣评分 7.7/10 from 16304 users
◎豆瓣链接 https://movie.douban.com/subject/19976774/
◎片  长 123分钟
◎导  演 奥利维耶·阿萨亚斯 Olivier Assayas
◎编  剧 奥利维耶·阿萨亚斯 Olivier Assayas
◎主  演 朱丽叶·比诺什 Juliette Binoche
      克里斯汀·斯图尔特 Kristen Stewart
      科洛·莫瑞兹 Chlo? Grace Moretz
      拉斯·艾丁格 Lars Eidinger
      强尼·弗林 Johnny Flynn
      安吉拉·温科勒 Angela Winkler
      汉斯·齐施勒 Hanns Zischler
      诺拉·冯·瓦尔茨特滕 Nora von Waldst?tten
      布拉迪·科贝特 Brady Corbet
      克莱尔·陈 Claire Tran

◎标  签 法国 | 女性 | 剧情 | KristenStewart | JulietteBinoche | 2014 | 法国电影 | 文艺

◎简  介

  玛利亚(朱丽叶·比诺什 Juliette Binoche 饰)是一名十分出色的演员,凭借“西格德”这一角色一举成名。在剧中,西格德野心勃勃,全身上下充满了致命的吸引力,她的行为直接导致了名为海琳娜的角色的自杀,是一出惊为天人的悲剧。
  
  如今,玛利亚已经四十多岁了,命运让她再度站在了舞台之上,只是,这一次,她不再是性感致命的西格德,而变成了悲剧的化身海琳娜。饰演西格德的是一位名叫艾莉丝(科洛·格蕾斯·莫瑞兹 Chloe Grace Moretz 饰)的新生代演员,她的个性狂放不羁,常常惹是生非,饱受非议。在入戏的过程中,玛利亚在艾莉丝的身上看到了曾经的自己,引发了她深深的思考。

◎获奖情况

  第67届戛纳电影节 ?(2014)
  主竞赛单元金棕榈奖(提名) 奥利维耶·阿萨亚斯
  
  第40届法国凯撒电影奖 ?(2015)
  最佳影片(提名) 夏尔·吉尔贝?/?奥利维耶·阿萨亚斯
  最佳导演(提名) 奥利维耶·阿萨亚斯
  最佳女主角(提名) 朱丽叶·比诺什
  最佳女配角 克里斯汀·斯图尔特
  
  第81届纽约影评人协会奖 ?(2015)
  最佳女配角 克里斯汀·斯图尔特
  
  第50届美国国家影评人协会奖 ?(2016)
  最佳女配角 克里斯汀·斯图尔特
  
  第36届波士顿影评人协会奖 ?(2015)
  最佳女配角 克里斯汀·斯图尔特
  
  第19届美国在线影评人协会奖 ?(2015)
  最佳女配角(提名) 克里斯汀·斯图尔特
  
  第2届豆瓣电影年度榜单 ?(2015)
  评分最高的欧洲电影(提名)

Video
ID : 1
Format : AVC
Format/Info : Advanced Video Codec
Format profile : [email protected]
Format settings : CABAC / 5 Ref Frames
Format settings, CABAC : Yes
Format settings, Reference frames : 5 frames
Codec ID : V_MPEG4/ISO/AVC
Duration : 2 h 3 min
Bit rate : 9 859 kb/s
Width : 1 920 pixels
Height : 800 pixels
Display aspect ratio : 2.40:1
Frame rate mode : Constant
Frame rate : 23.976 FPS
Color space : YUV
Chroma subsampling : 4:2:0
Bit depth : 8 bits
Scan type : Progressive
Bits/(Pixel*Frame) : 0.268
Stream size : 8.53 GiB (87%)
Writing library : x264 core 148 r2692 64f4e24
Encoding settings : cabac=1 / ref=5 / deblock=1:0:0 / analyse=0x3:0x133 / me=umh / subme=9 / psy=1 / psy_rd=1.00:0.00 / mixed_ref=1 / me_range=16 / chroma_me=1 / trellis=1 / 8x8dct=1 / cqm=0 / deadzone=21,11 / fast_pskip=0 / chroma_qp_offset=-2 / threads=25 / lookahead_threads=2 / sliced_threads=0 / nr=0 / decimate=1 / interlaced=0 / bluray_compat=0 / constrained_intra=0 / bframes=3 / b_pyramid=2 / b_adapt=2 / b_bias=0 / direct=3 / weightb=1 / open_gop=0 / weightp=2 / keyint=250 / keyint_min=23 / scenecut=40 / intra_refresh=0 / rc_lookahead=50 / rc=2pass / mbtree=1 / bitrate=9859 / ratetol=1.0 / qcomp=0.60 / qpmin=0 / qpmax=69 / qpstep=4 / cplxblur=20.0 / qblur=0.5 / ip_ratio=1.40 / aq=1:1.00
Language : English
Default : Yes
Forced : No

Audio
ID : 2
Format : DTS
Format/Info : Digital Theater Systems
Codec ID : A_DTS
Duration : 2 h 3 min
Bit rate mode : Constant
Bit rate : 1 509 kb/s
Channel(s) : 6 channels
Channel layout : C L R Ls Rs LFE
Sampling rate : 48.0 kHz
Frame rate : 93.750 FPS (512 SPF)
Bit depth : 24 bits
Compression mode : Lossy
Stream size : 1.31 GiB (13%)
Language : English
Default : Yes
Forced : No

Text
ID : 3
Format : UTF-8
Codec ID : S_TEXT/UTF8
Codec ID/Info : UTF-8 Plain Text
Duration : 35 min 27 s
Bit rate : 6 b/s
Count of elements : 47
Stream size : 1.66 KiB (0%)
Title : forced
Language : English
Default : Yes
Forced : Yes

Menu
00:00:00.000 : en:00:00:00.000
00:06:40.567 : en:00:06:40.567
00:11:08.126 : en:00:11:08.126
00:15:39.647 : en:00:15:39.647
00:18:43.414 : en:00:18:43.414
00:25:36.160 : en:00:25:36.160
00:30:43.008 : en:00:30:43.008
00:35:55.153 : en:00:35:55.153
00:42:11.904 : en:00:42:11.904
00:51:25.374 : en:00:51:25.374
00:58:03.605 : en:00:58:03.605
01:01:01.199 : en:01:01:01.199
01:14:52.196 : en:01:14:52.196
01:22:59.099 : en:01:22:59.099
01:27:23.822 : en:01:27:23.822
01:37:02.608 : en:01:37:02.608
01:42:12.418 : en:01:42:12.418
01:50:50.060 : en:01:50:50.060
01:57:17.989 : en:01:57:17.989





1 个附件 售价 大小 下载 时间

Clouds.of.Sils.Maria.2014.1080p.BluRay.x264-USURY.zip 0 金币 99.03K 196 次 2月前

#1楼
发帖时间:2020-11-18 09:02:30   |   回复数:0
游客组