travismk
一代宗师

[2013] [欧美] [剧情] [WEB-1080P] 卡彭特的奇迹 The.Carpenters.Miracle.2013.1080p.AMZN.WEBRip.DDP5.1.x264-MEAKES 6.15GB

-->

帖子完整标题:卡彭特的奇迹 The.Carpenters.Miracle.2013.1080p.AMZN.WEBRip.DDP5.1.x264-MEAKES 6.15GB



◎译  名 卡彭特的奇迹
◎片  名 The Carpenter’s Miracle
◎年  代 2013
◎产  地 美国
◎类  别 剧情 / 喜剧 / 家庭
◎语  言 英语
◎上映日期 2013-03-30(美国)
◎IMDb评分 5.2/10 from 182 users
◎IMDb链接 https://www.imdb.com/title/tt2703958/
◎豆瓣评分 /10 from 0 users
◎豆瓣链接 https://movie.douban.com/subject/25781951/
◎片  长 87分钟
◎导  演 克里斯托弗·塔柏 Kristoffer Tabori
◎编  剧 Judd Parkin
◎主  演 卡梅隆·马泰森 Cameron Mathison
      艾德里安·霍姆斯 Adrian Holmes

◎标  签 Unseen

◎简  介

  暂无相关剧情介绍

Video
ID : 1
Format : AVC
Format/Info : Advanced Video Codec
Format profile : [email protected]
Format settings : CABAC / 4 Ref Frames
Format settings, CABAC : Yes
Format settings, Reference frames : 4 frames
Codec ID : V_MPEG4/ISO/AVC
Duration : 1 h 27 min
Bit rate mode : Constant
Bit rate : 9 405 kb/s
Nominal bit rate : 10 000 kb/s
Width : 1 920 pixels
Height : 1 080 pixels
Display aspect ratio : 16:9
Frame rate mode : Constant
Frame rate : 23.976 (24000/1001/189150) FPS
Color space : YUV
Chroma subsampling : 4:2:0
Bit depth : 8 bits
Scan type : Progressive
Bits/(Pixel*Frame) : 0.189
Stream size : 5.75 GiB (94%)
Default : Yes
Forced : No
Color range : Limited
Color primaries : BT.709
Transfer characteristics : BT.709
Matrix coefficients : BT.709

Audio
ID : 2
Format : E-AC-3
Format/Info : Enhanced AC-3
Commercial name : Dolby Digital Plus
Codec ID : A_EAC3
Duration : 1 h 27 min
Bit rate mode : Constant
Bit rate : 640 kb/s
Channel(s) : 6 channels
Channel layout : L R C LFE Ls Rs
Sampling rate : 48.0 kHz
Frame rate : 31.250 FPS (1536 SPF)
Compression mode : Lossy
Stream size : 401 MiB (6%)
Language : English
Service kind : Complete Main
Default : Yes
Forced : No

Text
ID : 3
Format : UTF-8
Codec ID : S_TEXT/UTF8
Codec ID/Info : UTF-8 Plain Text
Duration : 1 h 24 min
Bit rate : 76 b/s
Count of elements : 1952
Stream size : 47.3 KiB (0%)
Language : English
Default : No
Forced : No





1 个附件 售价 大小 下载 时间

The.Carpenters.Miracle.2013.1080p.AMZN.WEBRip.DDP5.1.x264-MEAKES.zip 0 金币 31.44K 175 次 2月前

#1楼
发帖时间:2020-11-17 22:59:44   |   回复数:0
游客组