travismk
一代宗师

[2013] [欧美] [剧情] [WEB-1080P] 四/各怀心事 Four.2012.1080p.AMZN.WEBRip.DDP2.0.x264-ETHiCS 2.40GB

-->

帖子完整标题:四/各怀心事 Four.2012.1080p.AMZN.WEBRip.DDP2.0.x264-ETHiCS 2.40GB



◎译  名 四/各怀心事(港)
◎片  名 Four
◎年  代 2013
◎产  地 美国
◎类  别 剧情 / 同性
◎语  言 英语
◎上映日期 2013-09-13(美国)
◎IMDb评分 5.8/10 from 450 users
◎IMDb链接 https://www.imdb.com/title/tt0980999/
◎豆瓣评分 5.7/10 from 204 users
◎豆瓣链接 https://movie.douban.com/subject/10777579/
◎片  长 75分钟
◎主  演 维德尔·皮尔斯 Wendell Pierce
      阿雅·娜奥米·金 Aja Naomi King
      E·J·博尼拉 E.J. Bonilla
      艾莫里·科恩 Emory Cohen

◎标  签 美国 | 同志 | 同性 | 剧情 | LGBT | 独立 | 2013 | 美国电影

◎简  介

  根据被提名美国普利策文学奖的Christopher Shinn的同名戏剧“4”改编,讲述在7月4日这一晚,四个关系错综复杂的人之间的情欲纠葛。已婚但并不幸福的中年教授与网上认识的少年,教授叛逆的女儿和前高中明星如今的毒贩:四个人赶赴两个约会,结果无意撞到。在发生各种情感碰撞后他们决定划出一条界线,让自己在这个国庆夜彻底放纵一次...◎QAF

◎获奖情况

  第28届美国独立精神奖 ?(2013)
  最佳男主角(提名) 维德尔·皮尔斯

Video
ID : 1
Format : AVC
Format/Info : Advanced Video Codec
Format profile : [email protected]
Format settings : CABAC / 4 Ref Frames
Format settings, CABAC : Yes
Format settings, Reference frames : 4 frames
Codec ID : V_MPEG4/ISO/AVC
Duration : 1 h 14 min
Bit rate mode : Constant
Bit rate : 4 389 kb/s
Nominal bit rate : 10 000 kb/s
Width : 1 920 pixels
Height : 1 080 pixels
Display aspect ratio : 16:9
Frame rate mode : Constant
Frame rate : 23.976 (24000/1001/189150) FPS
Color space : YUV
Chroma subsampling : 4:2:0
Bit depth : 8 bits
Scan type : Progressive
Bits/(Pixel*Frame) : 0.088
Stream size : 2.28 GiB (95%)
Language : English
Default : Yes
Forced : No
Color range : Limited
Color primaries : BT.709
Transfer characteristics : BT.709
Matrix coefficients : BT.709

Audio
ID : 2
Format : E-AC-3
Format/Info : Enhanced AC-3
Commercial name : Dolby Digital Plus
Codec ID : A_EAC3
Duration : 1 h 14 min
Bit rate mode : Constant
Bit rate : 224 kb/s
Channel(s) : 2 channels
Channel layout : L R
Sampling rate : 48.0 kHz
Frame rate : 31.250 FPS (1536 SPF)
Compression mode : Lossy
Stream size : 119 MiB (5%)
Language : English
Service kind : Complete Main
Default : Yes
Forced : No

Text
ID : 3
Format : UTF-8
Codec ID : S_TEXT/UTF8
Codec ID/Info : UTF-8 Plain Text
Duration : 1 h 9 min
Bit rate : 36 b/s
Count of elements : 783
Stream size : 18.6 KiB (0%)
Title : SDH
Language : English
Default : No
Forced : No





1 个附件 售价 大小 下载 时间

Four.2012.1080p.AMZN.WEBRip.DDP2.0.x264-ETHiCS.zip 0 金币 24.68K 196 次 2月前

#1楼
发帖时间:2020-11-17 21:05:28   |   回复数:0
游客组